candii
八王子P

BASIC

Level: 3
BPM: 132
Notes: 214

1
口口口口 |----|
口口口口 |----|
口口口口 |----|
口口口口 |----|
2
口口口口 |①-②-|
口③②口 |-③--|
口口④口 |--④-|
口①口口 |----|
3
口口口口 |①-②-|
口②③口 |-③--|
口④口口 |--④-|
口口①口 |----|
4
口口口口 |①-②-|
口③②口 |-③--|
口口④口 |--④-|
①口口口 |----|
5
口口口口 |①-②-|
口②③口 |-③--|
口④口口 |--④-|
口口口① |----|
6
口口④口 |①-②-|
口③口口 |-③--|
①口口② |--④-|
口口口口 |----|
7
口④口口 |①-②-|
口口③口 |-③--|
②口口① |--④-|
口口口口 |----|
8
口口④口 |①-②-|
口③口口 |-③--|
①口口② |--④-|
口口口口 |----|
9
口口口口 |①---|
口②③口 |----|
口①①口 |②---|
口口口口 |③---|
10
口③②口 |①---|
口口④口 |--②-|
口①口口 |----|
口口口口 |③-④-|
11
口③②口 |①---|
口口④口 |--②-|
口①口口 |----|
口口口口 |③-④-|
12
口口口口 |①---|
口②口口 |--②-|
口口③口 |----|
口①口口 |③---|
13
口口口口 |①---|
口③②口 |--②-|
口口口口 |----|
口口①口 |③---|
14
口③②口 |①---|
口口④口 |--②-|
口①口口 |----|
口口口口 |③-④-|
15
口③②口 |①---|
口口④口 |--②-|
口①口口 |----|
口口口口 |③-④-|
16
口口口口 |①---|
口②口口 |--②-|
口口③口 |----|
口①口口 |③---|
17
口口口口 |①---|
口口②口 |②---|
口③④口 |③---|
口①①口 |④---|
18
口口口口 |①---|
口③②口 |②---|
①口口④ |③---|
口口口口 |④---|
19
口口口口 |①---|
①口口④ |②---|
口③②口 |③---|
口口口口 |④---|
20
口口④口 |①---|
口口③口 |②---|
口②口口 |③---|
口①口口 |④---|
21
口①口口 |①---|
口②口口 |②---|
口口③口 |③---|
口口④口 |④---|
22
口口口口 |①---|
③口口② |②---|
①口口④ |③---|
口口口口 |④---|
23
口口口口 |①---|
口①④口 |②---|
口③②口 |③---|
口口口口 |④---|
24
口口口口 |①---|
①口口③ |②---|
④口口② |③---|
口口口口 |④---|
25
口口口口 |①---|
口②②口 |----|
口①①口 |----|
口口口口 |②---|
26
口口口口 |①---|
口口口口 |--②-|
口③口② |----|
口①①口 |③---|
27
口口口口 |--①-|
口③①口 |----|
口口②口 |②---|
口口口口 |③---|
28
口口口口 |①---|
口口口口 |----|
口口口口 |②---|
口②①口 |----|
29
口口口口 |①---|
口口口口 |----|
口②①口 |②---|
口口口口 |----|
30
口口口口 |①---|
口口口口 |--②-|
口③口② |----|
口①①口 |③---|
31
口口口口 |--①-|
口③①口 |----|
口口②口 |②---|
口口口口 |③---|
32
口口口口 |①---|
口口口口 |----|
口口口口 |②---|
口②①口 |----|
33
口口口口 |①---|
口③②口 |②---|
口④①口 |③---|
口口口口 |④---|
34
口口口口 |①---|
口口口口 |--②-|
口③口② |----|
口①①口 |③---|
35
口口口口 |--①-|
口③①口 |----|
口口②口 |②---|
口口口口 |③---|
36
口口口口 |①---|
口口口口 |--②-|
口口③口 |----|
口②①口 |③---|
37
口口口口 |--①-|
口①口口 |----|
口②口口 |②---|
口口口口 |----|
38
口口口口 |①---|
口口口口 |--②-|
口③口② |----|
口①①口 |③---|
39
口口口口 |--①-|
口③①口 |----|
口口②口 |②---|
口口口口 |③---|
40
口口口口 |①---|
口口口口 |----|
口口口口
口口①口

口口口口
口口口口
口口口口 |②---|
口②③口 |③---|
41
口口口口 |①---|
口①①口 |----|
口②②口 |--②-|
口口口口 |----|
42
口口口口 |①---|
①③②② |----|
口口口口 |②---|
口口口口 |③---|
43
口口口口 |①---|
口口口口 |----|
②②③① |②---|
口口口口 |③---|
44
口口口口 |①---|
①③②② |----|
口口口口 |②---|
口口口口 |③---|
45
口口口口 |①---|
口口口口 |----|
②②③① |②---|
口口口口 |③---|
46
口口口口 |①---|
①③②② |----|
口口口口 |②---|
口口口口 |③---|
47
口口口口 |①---|
口口口口 |----|
②②③① |②---|
口口口口 |③---|
48
口口口口 |①---|
①口口② |----|
口口口口 |②---|
口口口口 |----|
49
口口口口 |①---|
②口口② |----|
口①①口 |②---|
口口口口 |----|
50
口口口口 |①---|
②①③④ |②---|
口口口口 |③---|
口口口口 |④---|
51
口口口口 |①---|
口口口口 |②---|
②①③④ |③---|
口口口口 |④---|
52
口口口口 |①---|
①口口③ |②---|
②口口④ |③---|
口口口口 |④---|
53
口口口口 |①---|
口①③口 |②---|
口②④口 |③---|
口口口口 |④---|
54
口①①口 |①---|
②口口② |----|
口口口口 |②---|
口口口口 |----|
55
口口口口 |①---|
口口口口 |----|
口①①口 |②---|
②口口② |----|
56
口口口口 |①---|
①①③③ |②---|
②②④④ |③---|
口口口口 |④---|
57
口③③口 |①---|
口②②口 |②---|
口④④口 |③---|
口①①口 |④---|


不确定度: 0

最終更新:2012年11月07日 23:19