a burning bullet
LAST ALLIANCE
EXTREME
Level: 8
BPM: 209
Notes: 447
1
口口口口 |----|
口口口口 |----|
口口口口 |----|
口口口口 |----|
2
口口口口 |----|
口口口口 |----|
口口口口 |----|
口口口口 |----|
3
口口口口 |----|
口口口口 |----|
口口口口 |----|
口口口口 |----|
4
口口口口 |----|
口口口口 |----|
口口口口 |----|
口口口口 |----|
5
口口口口 |----|
口口口口 |----|
口口口口 |----|
口口口口 |----|
6
口口口口 |----|
口口口口 |----|
口口口口 |----|
口口口口 |----|
7
口口口口 |----|
口口口口 |----|
口口口口 |----|
口口口口 |----|
8
口口口口 |----|
口口口口 |----|
口口口口 |----|
口口口口 |----|
9
口口口口 |----|
口口口口 |----|
口口口口 |----|
口口口口 |----|
10
①口①① |①---|
口口口口 |--②-|
②②口② |----|
③口③③ |③---|
11
口①口① |--①-|
②口口② |----|
口②口口 |②---|
③口③口 |③---|
12
②②③口 |①---|
③①②③ |--②-|
①③①② |----|
口口口① |③---|
13
②②③③ |--①-|
口口口口 |----|
口口口口 |②---|
口①口① |③---|
14
口口口口 |①-②-|
①口②口 |③-④-|
⑦③⑧④ |⑤-⑥-|
⑤口⑥口 |⑦-⑧-|
15
⑦⑤⑧⑥ |①-②-|
口口口口 |③-④-|
口③口④ |⑤-⑥-|
口①口② |⑦-⑧-|
16
口口口口 |①---|
①口①① |--②-|
②②③③ |----|
③口口② |③---|
17
口口口口 |----|
①口④① |①---|
口③口口 |②-③-|
口口②口 |④---|
18
①①①① |①---|
口口口口 |--②-|
②口③② |----|
口③口口 |③---|
19
口①口① |--①-|
②口口② |----|
口②口口 |②---|
③口③口 |③---|
20
②②③口 |①---|
③①②③ |--②-|
①③①② |----|
口口口① |③---|
21
②②③③ |--①-|
口口口口 |----|
口口口口 |②---|
口①口① |③---|
22
口口口口 |①-②-|
①口②口 |③-④-|
⑦③⑧④ |⑤-⑥-|
⑤口⑥口 |⑦-⑧-|
23
⑦⑤⑧⑥ |①-②-|
口口口口 |③-④-|
口③口④ |⑤-⑥-|
口①口② |⑦-⑧-|
24
口口口口 |①---|
①口①① |--②-|
②②③③ |----|
③口口② |③---|
25
口口口口 |----|
①口口① |----|
口口口口 |①---|
口①①口 |----|
26
口①口② |①-②-|
口④③口 |③-④-|
⑤⑦⑦⑤ |⑤---|
口口口⑥ |⑥-⑦-|
27
①①①口 |--①-|
口口口② |----|
口口口② |--②-|
口口③口 |--③-|
28
③口口口 |①-②-|
口口④口 |--③-|
②口⑤⑤ |--④-|
①口⑥⑥ |⑤-⑥-|
29
口口口口 |----|
口口口口 |----|
口口口口 |----|
口口口口 |----|
30
口①口② |①-②-|
口④③口 |③-④-|
⑤⑦⑦口 |⑤---|
口口口⑥ |⑥-⑦-|
31
①①①口 |--①-|
口口口② |----|
口③口口 |--②-|
口口口口 |--③-|
32
③口口口 |①-②-|
口口④口 |--③-|
②口⑤⑤ |----|
①口口口 |④-⑤-|
33
口③口⑤ |--①-|
②口④口 |----|
口口口口 |②-③-|
①①口口 |④-⑤-|
34
口口口口 |--①-|
口①口① |--②-|
②⑥④⑥ |③-④-|
口③口⑤ |⑤-⑥-|
35
口口口口 |--①-|
②口③口 |--②-|
口⑥④⑥ |③-④-|
①口⑤口 |⑤-⑥-|
36
②①②① |--①-|
③④③④ |--②-|
口口口口 |--③-|
口口口口 |--④-|
37
口口口口 |----|
口口口口 |----|
口口口口 |----|
口口口口 |----|
38
口口口① |①-②-|
口②口③ |③-④-|
⑦④⑦口 |⑤---|
⑥口口⑤ |⑥-⑦-|
39
①①①口 |--①-|
②口口口 |----|
口口③口 |--②-|
口口口口 |--③-|
40
口⑥口⑥ |①---|
口口⑤⑤ |②---|
④④口③ |③-④-|
②口口① |⑤-⑥-|
41
口口①口 |----|
口②口口 |①---|
口口③口 |②---|
口口口口 |③---|
42
①口口① |①---|
口口口口 |----|
①口口① |----|
口口口口 |----|
43
③口口口 |----|
口③②口 |----|
口①口口 |①-②-|
口口口口 |--③-|
44
口②①口 |----|
④口口④ |①-②-|
口③④③ |--③-|
口④③口 |--④-|
45
口口口口 |----|
口口口口 |----|
①口口口 |----|
口口口口 |①---|
46
口③口④ |①---|
①②③口 |②---|
口①口口 |③---|
口口口口 |④---|
47
口口①口 |----|
①②口① |①---|
②③③② |②---|
口口口口 |③---|
48
口④口口 |①---|
④口①③ |②---|
口口口口 |③---|
口③口② |④---|
49
口口口口 |----|
口①①口 |①---|
口口②口 |②---|
口③口口 |③---|
50
①口口① |①---|
口口口口 |----|
①口口① |----|
口口口口 |----|
51
③口口口 |----|
口③②口 |----|
口①口口 |①-②-|
口口口口 |--③-|
52
口②①口 |----|
④口口④ |①-②-|
口③④③ |--③-|
口④③口 |--④-|
53
口口口口 |----|
口口口口 |----|
口口口口 |----|
①口口口 |①---|
54
①①口口 |①---|
口口②口 |②---|
口④口③ |③---|
口口④口 |④---|
55
口①①口 |----|
口口口口 |①---|
②口口③ |②---|
口②③口 |③---|
56
口口口口 |----|
口口口口 |----|
口口口口 |----|
口口口口 |----|
57
⑤⑥①② |①---②-|
④口口③ |--③---|
③口口④ |④---⑤-|
②①⑥⑤ |--⑥---|
58
口口①口 |①-②-|
口⑤②口 |--③-|
③③④口 |----|
口口口口 |④-⑤-|
59
④④①① |--①-|
口口③口 |----|
口②口口 |②-③-|
口口口口 |--④-|
60
口口③③ |----|
口②口口 |①-②-|
口口①口 |--③-|
口口口口 |----|
61
④①口④ |①-②-|
口口②口 |--③-|
③口口③ |----|
口口口口 |④---|
62
口口口口 |①---|
口①③口 |②---|
口④②口 |③---|
口口口口 |④---|
63
口口口口 |①---|
口②口口 |②---|
口④②口 |③---|
③口①口 |④---|
64
口①①口 |①---|
②③①① |--②-|
②口③① |----|
口②②口 |③---|
65
①口口口 |--①-|
口口②① |----|
口口③口 |②---|
②口口口 |③---|
66
口①①口 |①---|
①①③② |--②-|
①③口② |----|
口②②口 |③---|
67
口口口口 |①---|
口口口口 |----|
口口口口 |----|
①口口① |----|
68
口③③口 |①---|
口口口口 |--②-|
②①①② |----|
①口口① |③---|
69
①口口① |--①-|
③①①口 |----|
口③口② |②---|
口②口口 |③---|
70
④口①⑤ |①---|
口④⑤③ |②-③-|
④口②⑤ |--④-|
口口口③ |--⑤-|
71
口口口口 |----|
口口口口 |----|
口②口口 |①---|
①口口口 |②---|
72
口①①口 |①---|
②③①① |--②-|
②口③① |----|
口②②口 |③---|
73
①口口口 |--①-|
口口②① |----|
口口③口 |②---|
②口口口 |③---|
74
口①①口 |①---|
①①③② |--②-|
①③口② |----|
口②②口 |③---|
75
口口口口 |①---|
口口口口 |----|
口口口口 |----|
①口口① |----|
76
①⑤口口 |①---|
③口口口 |②-③-|
①口口② |--④-|
③口⑤④ |--⑤-|
77
口口①口 |----|
口③②口 |①---|
口②③口 |②---|
口①口口 |③---|
78
口①口口 |----|
②口②② |----|
口口口口 |①---|
口口口口 |②---|
79
③口口③ |----|
口②口口 |①---|
口①口口 |②---|
口口口口 |③---|
80
口口口口 |①---|
口口口口 |----|
①口口① |----|
口口口口 |----|
不確定度: 0