愛
OverTheDogs
EXTREME
Level: 8
BPM: 176
Notes: 607
1
口口口口 |----|
口口口口 |----|
口口口口 |----|
口口口口 |----|
2
口口口口 |①---|
①口③口 |--②-|
口口②口 |----|
口口口口 |③---|
3
口口口口 |①---|
口③口① |--②-|
口②口口 |----|
口口口口 |③---|
4
口口口口 |①---|
①口③口 |--②-|
口口②口 |----|
口口口口 |③---|
5
①口口① |①---|
口口口口 |----|
口口口口 |----|
口口口口 |----|
6
口口口口 |①---|
口⑤口① |②-③-|
口③口口 |④---|
②④⑤口 |⑤---|
7
口⑤④② |①---|
①口⑤口 |②-③-|
口口③口 |④---|
口口口① |⑤---|
8
①口口口 |①---|
口⑤口① |②-③-|
口③口口 |④---|
②④⑤口 |⑤---|
9
口口口⑥ |①---|
①⑤口④ |②---|
口③口口 |③-④-|
②口口① |⑤-⑥-|
10
①⑥口⑦ |①-②-|
①口④口 |③-④-|
⑤口④② |⑤-⑥-|
口③口口 |⑦---|
11
口口③口 |①-②-|
②④口⑤ |③-④-|
口④口① |⑤-⑥-|
⑦口⑥① |⑦---|
12
②⑦口① |①-②-|
②口⑤口 |③-④-|
⑥口⑤③ |⑤-⑥-|
口④口口 |⑦---|
13
⑦⑦③口 |①-②-|
②②⑥⑥ |③-④-|
口口⑤口 |⑤-⑥-|
④④①① |⑦---|
14
口口③口 |①-②-|
②④口⑤ |③-④-|
口④口① |⑤-⑥-|
⑦口⑥① |⑦---|
15
①⑥口⑦ |①-②-|
①口④口 |③-④-|
⑤口④② |⑤-⑥-|
口③口口 |⑦---|
16
口口③口 |①-②-|
②④口⑤ |③-④-|
口④口① |⑤-⑥-|
⑦口⑥① |⑦---|
17
①①⑥⑥ |①-②-|
口③⑤口 |③-④-|
④④②② |⑤-⑥-|
口口口⑦ |⑦---|
18
①口口口 |①-②-|
口②⑦口 |③-④-|
③⑥⑤口 |⑤-⑥-|
口④口口 |⑦---|
19
①①口口 |①-②-|
②口口口 |③-④-|
口口口③
口口④④
⑦口⑥口
口⑤口口
⑥口⑦口 |--⑤-|
口口口口 |⑥-⑦-|
20
口①口口 |①-②-|
②⑤④口 |③-④-|
⑥③⑧口 |⑤-⑥-|
口⑦口口 |⑦-⑧-|
21
口①口⑤ |①-②-|
口口④口 |--③-|
口②口口 |④---|
口口③口 |⑤---|
22
①口口口 |①-②-|
口②口口 |③-④-|
④口③口
口口口口
⑧⑧口口
口口⑤口
口口口⑥ |⑤-⑥-|
口口⑦口 |⑦-⑧-|
23
口口口⑤ |①-②-|
①①⑥口 |③-④-|
口②口口 |----|
④③口口 |⑤-⑥-|
24
口口⑧⑦ |①-②-|
口③口⑥ |③-④-|
口①②⑤ |⑤-⑥-|
口口口④ |⑦-⑧-|
25
口口口⑥ |①-②-|
口②③口 |--③④|
口口④口 |⑤---|
口①⑤口 |⑥---|
26
①口口口 |①-②-|
口②⑦口 |③-④-|
③⑥⑤口 |⑤-⑥-|
口④口口 |⑦---|
27
①①口口 |①-②-|
②口口口 |③-④-|
口口口③
口口④④
⑦口⑥口
口⑤口口
⑥口⑦口 |--⑤-|
口口口口 |⑥-⑦-|
28
口①口口 |①-②-|
②⑤④口 |③-④-|
⑥③⑧口 |⑤-⑥-|
口⑦口口 |⑦-⑧-|
29
口①口⑤ |①-②-|
口口④口 |--③-|
口②口口 |④---|
口口③口 |⑤---|
30
①口口口 |①-②-|
口②⑤口 |③-④-|
④⑧③⑥ |⑤-⑥-|
口口⑦口 |⑦-⑧-|
31
④口口⑤ |①-②-|
①②⑥口 |③-④-|
③⑦口口 |--⑤-|
口口口口 |⑥-⑦-|
32
口口③口 |①-②-|
⑧②⑥④ |③-④-|
口⑦⑤① |⑤-⑥-|
口口口口 |⑦-⑧-|
33
口①④口 |①-②-|
口②⑤口 |--③-|
口口口口 |--④-|
口口③口 |⑤---|
34
口口口口 |①-②-|
①②口① |③-④-|
③口④③
口口口口
口口口口
⑦口⑦口
口口口口 |⑤-⑥-|
⑤⑥口⑤ |--⑦-|
35
口口口口 |①-②-|
口⑤口口 |③-④-|
③①⑥④ |--⑤-|
口⑦②口 |⑥-⑦-|
36
⑧口口① |①-②-|
⑥⑥③③ |③-④-|
④口口⑤ |⑤-⑥-|
②口口⑦ |⑦-⑧-|
37
⑥④⑤⑦ |--①-|
口口③口 |②-③-|
口②口口 |④-⑤-|
口口①口 |⑥-⑦-|
38
口口口口 |①-②-|
①②口① |③-④-|
③口④③
口口口口
口口口口
⑦口⑦口
口口口口 |⑤-⑥-|
⑤⑥口⑤ |--⑦-|
39
口口口口 |①-②-|
口⑤口口 |③-④-|
③①⑥④ |--⑤-|
口⑦②口 |⑥-⑦-|
40
口口口① |①-②-|
口口③③ |③---|
口口口口
②口口口
⑥口口⑦
④口口口
口口口⑤ |④-⑤-|
口口口口 |⑥-⑦-|
41
口①⑧口 |①-②-|
口⑦②口 |③-④-|
口③⑥口 |⑤-⑥-|
口⑤④口 |⑦-⑧-|
42
口口口口 |①-②-|
③口④③ |③-④-|
①②口①
口口口口
⑤⑥口⑤
口口口口
⑦口⑦口 |⑤-⑥-|
口口口口 |--⑦-|
43
口⑦②口 |①-②-|
③①⑥④ |③-④-|
口⑤口口 |--⑤-|
口口口口 |⑥-⑦-|
44
②口口口 |①-②-|
④⑤⑤口 |③-④-|
口⑥⑥③ |--⑤-|
口⑦⑦① |⑥-⑦-|
45
口②①口 |①-②-|
口口口口 |--③-|
口口口口
③口口③
⑥口⑥⑥
⑤⑤口⑤
④口④④ |--④-|
口口口口 |⑤-⑥-|
46
口口口口 |----|
①①口① |----|
②口②② |--①-|
③③口③ |②-③-|
47
口口口口 |----|
口口口口 |----|
口口口口 |----|
口口口口 |----|
48
口口口④ |①-②-|
⑤③⑤口 |③---|
⑥⑥②口 |④-⑤-|
⑦①口口 |⑥-⑦-|
49
口口口口 |--①-|
口口④① |②-③-|
口口②③ |④---|
口口口口 |----|
50
①①③口 |①-②-|
口口口④ |③-④-|
口口口口
②②口口
⑧⑧口⑥
⑦⑦⑤口
口口口口 |⑤-⑥-|
口口口口 |⑦-⑧-|
51
口口⑥口 |①-②-|
口⑤口⑦ |③-④-|
④①①④ |--⑤-|
②③③② |⑥-⑦-|
52
⑤⑦⑦⑤ |①-②-|
⑧⑥⑥⑧ |③-④-|
口①④口 |⑤-⑥-|
③口口② |⑦-⑧-|
53
口口口口 |①---|
口口口口 |----|
②口口② |②---|
口①①口 |----|
54
口口②② |①-②-|
口口口口 |③-④-|
④口口口
口③①①
口口口口
口口口口
口⑤⑦⑦ |⑤-⑥-|
⑥口⑧⑧ |⑦-⑧-|
55
②③③② |①-②-|
④①①④ |③-④-|
⑦口⑤口 |--⑤-|
口⑥口口 |⑥-⑦-|
56
②口口③ |①-②-|
口④①口 |③-④-|
⑦⑥⑥⑦ |⑤-⑥-|
⑤⑧⑧⑤ |⑦-⑧-|
57
口①①口 |①---|
②口口② |----|
口口口口 |②---|
口口口口 |----|
58
①①③口 |①-②-|
口口口④ |③-④-|
口口①②
②②口口
⑧⑧口⑥
⑦⑦⑤口
口口口口 |⑤-⑥-|
口口口口 |⑦-⑧-|
59
口口⑥口 |①-②-|
口⑤口⑦ |③-④-|
④①①④ |--⑤-|
②③③② |⑥-⑦-|
60
⑤⑦⑦⑤ |①-②-|
⑧⑥⑥⑧ |③-④-|
口①④口 |⑤-⑥-|
③口口② |⑦-⑧-|
61
口口口口 |①-②-|
口口口⑦ |③-④-|
⑤②③⑧ |⑤-⑥-|
⑥④①口 |⑦-⑧-|
62
口口②② |①-②-|
②①口口 |③-④-|
④口口口
口③①①
口口口口
口口口口
口⑤⑦⑦ |⑤-⑥-|
⑥口⑧⑧ |⑦-⑧-|
63
②③③② |①-②-|
④①①④ |③-④-|
⑦口⑤口 |--⑤-|
口⑥口口 |⑥-⑦-|
64
②口口③ |①-②-|
口④①口 |③-④-|
⑦⑥⑥⑦ |⑤-⑥-|
⑤⑧⑧⑤ |⑦-⑧-|
65
②①①② |①-②-|
口③③口 |--③-|
口口口口 |----|
口口口口 |----|
66
①①③口 |①-②-|
口口口④ |③-④-|
口口①②
②②口口
⑧⑧口⑥
⑦⑦⑤口
口口口口 |⑤-⑥-|
口口口口 |⑦-⑧-|
67
口口口口 |①-②-|
口⑤⑤口 |③-④-|
④①①④ |----|
②③③② |⑤---|
68
口口口口 |①---|
①口③口 |--②-|
口口②口 |----|
口口口口 |③---|
69
口③口口 |①---|
口口口① |--②-|
口②口口 |----|
口口口口 |③---|
70
口口②② |①-②-|
②①口口 |③-④-|
④口口口
口③①①
口口口口
口口口口
口⑤⑦⑦ |⑤-⑥-|
⑥口⑧⑧ |⑦-⑧-|
71
②③③② |①-②-|
④①①④ |③-④-|
口⑤⑤口 |----|
口口口口 |⑤---|
72
口④④口 |①-②-|
③⑤⑤③ |③---|
②口口② |④---|
①口口① |⑤---|
73
口口口口 |①---|
③口口③ |②---|
④①①④ |③-④-|
⑤②②⑤ |⑤---|
不確定度: 0