Holy Snow
Mutsuhiko Izumi

ADVANCED

Level: 8
BPM: 130-160
Notes: 615

BPM: 160
1
口口口口 |----|
口口口口 |----|
口口口口 |----|
口口口口 |----|
2
口口④③ |①-②-|
口口②① |③-④-|
口口⑧⑥ |⑤-⑥-|
口口⑦⑤ |⑦-⑧-|
3
①②口口 |①-②-|
③④口口 |③-④-|
⑤⑦口口 |⑤-⑥-|
⑥口口口 |⑦---|
4
口口④③ |①-②-|
口口②① |③-④-|
口⑦⑦⑥ |⑤-⑥-|
口口⑧⑤ |⑦-⑧-|
5
①②⑦⑦ |①-②-|
③④口口 |③-④-|
⑥⑥口口 |⑤-⑥-|
⑤⑤口口 |⑦---|
6
口口口口 |①-②-|
④口口③ |③-④-|
口口②②
口口①①

⑥⑥⑦⑦
口口口口
⑤⑤⑧⑧ |⑤-⑥-|
口口口口 |⑦-⑧-|
7
口口口口 |①-②-|
②②口④ |③-④-|
③口口口
①①口口

口口⑤⑤
⑧⑧口口
口口⑥⑥ |⑤-⑥-|
⑦⑦口口 |⑦-⑧-|
8
④口口⑤ |①-②-|
⑥口口③ |③-④-|
②口口⑦ |⑤-⑥-|
⑧口口① |⑦-⑧-|
9
③③⑤⑤ |①-②-|
⑥⑥②② |③-④-|
④④⑦⑦ |⑤-⑥-|
口口①① |⑦---|
10
②口口② |①---|
口口③口 |----|
口④口口 |②---|
①口口① |--③④|
11
④口口④ |①---②-|
⑤口口③ |--③---|
②口口⑥ |④---⑤-|
口口①口 |--⑥---|
12
②口口② |①---|
口口③口 |----|
口④口口 |②---|
①口口口 |--③④|
13
口口口口 |①---|
口口口口 |----|
口口口口
口口①口

②口口②
口口口口
口③③口 |②------③--|
口④④口 |---④----|
14
②①①② |①---|
口口口口 |----|
口③③口 |②--③|
口④④口 |-----④------|
15
②①①② |①---|
口口口口 |----|
口口口口 |②---|
口口口口 |----|
16
②口口② |①---|
口③口口 |----|
口口④口 |②-③-|
口①①口 |④---|
17
②口口② |①---|
口口口口 |----|
口口口口 |②---|
①口口① |----|
18
口口④③ |①-②-|
口口②① |③-④-|
口口⑧⑥ |⑤-⑥-|
口口⑦⑤ |⑦-⑧-|
19
①②口口 |①-②-|
③④口口 |③-④-|
⑥⑦口口 |⑤-⑥-|
⑤口口口 |⑦---|
20
口口②① |①-②-|
口口④③ |③-④-|
口⑦⑦⑥ |⑤-⑥-|
口口⑧⑤ |⑦-⑧-|
21
①②⑤⑤ |①-②-|
③④⑥⑥ |③-④-|
口口⑦⑦ |⑤-⑥-|
口口⑧⑧ |⑦-⑧-|
22
②④⑥口 |①②-③|
①③⑤口 |④-⑤⑥|
口口口口
口口口口

⑩口口⑧
口口口⑦
⑨口口口 |-⑦⑧-|
口口口口 |⑨-⑩-|
23
口口口口 |①②-③|
口口口口 |④-⑤⑥|
口⑥④②
口⑤③①

口口口⑨
口口口口
⑧口口⑩ |-⑦⑧-|
⑦口口口 |⑨-⑩-|
24
口⑤③口 |①---|
④④①① |②-③-|
口口口口 |④---|
口⑥②口 |⑤-⑥-|
25
⑤⑤④④ |①-②-|
⑥⑥③③ |③-④-|
⑦⑦②② |⑤-⑥-|
口口①① |⑦---|
26
口口④③ |①-②-|
口口②① |③-④-|
口口⑧⑥ |⑤-⑥-|
口口⑦⑤ |⑦-⑧-|
27
①②口口 |①-②-|
③④口口 |③-④-|
⑥⑦口口 |⑤-⑥-|
⑤口口口 |⑦---|
28
口口②① |①-②-|
口口④③ |③-④-|
口⑦⑦⑥ |⑤-⑥-|
口口⑧⑤ |⑦-⑧-|
29
①②⑤⑤ |①-②-|
③④⑥⑥ |③-④-|
口口⑦⑦ |⑤-⑥-|
口口⑧⑧ |⑦-⑧-|
30
②④⑥口 |①②-③|
①③⑤口 |④-⑤⑥|
口口口口
口口口口

⑩口口⑧
口口口⑦
⑨口口口 |-⑦⑧-|
口口口口 |⑨-⑩-|
31
口口口口 |①②-③|
口口口口 |④-⑤⑥|
口⑥④②
口⑤③①

口口口⑨
口口口口
⑧口口⑩ |-⑦⑧-|
⑦口口口 |⑨-⑩-|
32
口⑤③口 |①---|
④④①① |②-③-|
口口口口 |④---|
口⑥②口 |⑤-⑥-|
33
口口④④ |①-②-|
口口③③ |③-④-|
口口②②
口口①①

⑤⑤口口
⑥⑥口口
⑦⑦口口 |⑤-⑥-|
口口⑧⑧ |⑦-⑧-|
34
口口口口 |①---|
②②①① |--②-|
口口⑤口 |--③-|
口口④③ |④-⑤-|
35
口口④③ |①-②-|
口口口② |③-④-|
⑦口口① |--⑤-|
⑥⑤口口 |⑥-⑦-|
36
④③⑤⑥ |①-②-|
口②口⑦ |③-④-|
口①口口 |--⑤-|
口口口口 |⑥-⑦-|
37
口口口口 |①-②-|
口口①口 |③-④-|
⑧口②③ |⑤-⑥-|
⑦⑥⑤④ |⑦-⑧-|
38
①②③④ |①-②-|
口口口口 |③-④-|
口⑦⑥⑤ |--⑤-|
口口口口 |⑥-⑦-|
39
①口口④ |①---|
③口口② |②---|
①口口④ |③---|
③口口② |④---|
40
口口口口 |①---|
④①①④ |②---|
③①①③ |③---|
②口口② |④---|
41
①口口① |①---|
口口口口 |②---|
③口口③ |③---|
②口口② |----|
42
①口口① |①---|
口口口口 |----|
口口口口 |----|
口口口口 |----|
43
口口口口 |①---|
口口口口 |----|
口口口口 |----|
口①①口 |----|
44
口口口口 |----|
口①②口 |①---|
口口③口 |②---|
口口口口 |③---|
45
口②③口 |①---|
②口口③ |②---|
口①口④ |③---|
口口④口 |④---|
46
口口口口 |①---|
口口口口 |----|
①口口口 |----|
口①口口 |----|
47
口口口口 |①---|
口①①口 |----|
口①①口 |----|
口口口口 |----|
48
口①①口 |①---|
①口口① |----|
口口口口 |②-③-|
②口口③ |----|
49
②口口② |①---|
口口口口 |----|
口口口口 |②---|
口①①口 |----|
50
口口④③ |①-②-|
口口②① |③-④-|
口口⑧⑥ |⑤-⑥-|
口口⑦⑤ |⑦-⑧-|
51
①②口口 |①-②-|
③④口口 |③-④-|
⑤⑦口口 |⑤-⑥-|
⑥口口口 |⑦---|
52
口口④③ |①-②-|
口口②① |③-④-|
口⑦⑦⑥ |⑤-⑥-|
口口⑧⑤ |⑦-⑧-|
53
①②⑦⑦ |①-②-|
③④口口 |③-④-|
⑥⑥口口 |⑤-⑥-|
⑤⑤口口 |⑦---|
54
口口口口 |①-②-|
④口口③ |③-④-|
口口①①
口口②②

口口口口
口口口口
⑥⑥⑦⑦ |⑤-⑥-|
⑤⑤⑧⑧ |⑦-⑧-|
55
①①口④ |①-②-|
②②口口 |③-④-|
口口口口
③口口口

口口口口
⑧⑧⑤⑤
⑦⑦⑥⑥ |⑤-⑥-|
口口口口 |⑦-⑧-|
56
④④③③ |①-②-|
⑧⑧⑦⑦ |③-④-|
⑥⑥⑤⑤ |⑤-⑥-|
②②①① |⑦-⑧-|
57
③③①① |①-②-|
⑥⑥口口 |③-④-|
口口⑤⑤ |⑤---|
④④②② |⑥---|
58
口口④③ |①-②-|
口口②① |③-④-|
口口⑧⑥ |⑤-⑥-|
口口⑦⑤ |⑦-⑧-|
59
①②口口 |①-②-|
③④口口 |③-④-|
⑤⑦口口 |⑤-⑥-|
⑥口口口 |⑦---|
60
口口④③ |①-②-|
口口②① |③-④-|
口⑦⑦⑥ |⑤-⑥-|
口口⑧⑤ |⑦-⑧-|
61
①②⑦⑦ |①-②-|
③④口口 |③-④-|
⑥⑥口口 |⑤-⑥-|
⑤⑤口口 |⑦---|
62
口口口口 |①-②-|
④口口③ |③-④-|
口口①①
口口②②

口口口口
口口口口
⑥⑥⑦⑦ |⑤-⑥-|
⑤⑤⑧⑧ |⑦-⑧-|
63
口①口口 |①---|
②①口③ |②-③-|
口口口口
口口口口

口⑦⑥口
口⑦⑥口
④⑤口口 |④-⑤-|
④⑤口口 |⑥-⑦-|
64
口口口口 |①-②-|
④口口③ |③-④-|
口口①①
口口②②

口口口口
口口口口
⑥⑥⑦⑦ |⑤-⑥-|
⑤⑤⑧⑧ |⑦-⑧-|
65
口①口口 |①---|
②①口③ |②-③-|
口口口口
口口口口

口⑦⑥口
口⑦⑥口
④⑤口口 |④-⑤-|
④⑤口口 |⑥-⑦-|
66
⑦⑧⑥⑤ |①-②-|
⑦⑧⑥⑤ |③-④-|
③④②① |⑤-⑥-|
③④②① |⑦-⑧-|
67
口口口⑨ |①-②-|
⑧⑦⑥⑤ |③-④-|
④③②① |⑤⑥⑦⑧|
④③②① |⑨---|

BPM: 155
68
口口口口 |①-②-|
口口口口 |③-④-|
③④②①
③④②①

BPM: 150
口口⑥⑤
口口⑥⑤
口口口口 |⑤-⑥-|
口口口口

BPM: 140
⑦⑧口口
⑦⑧口口
口口口口
口口口口 |⑦-⑧-|

BPM: 130
69
口口口⑨ |①-②-|
⑧⑦⑥⑤ |③-④-|
④③②① |⑤⑥⑦⑧|
④③②① |⑨---|

BPM: 160
70
口口口口 |----|
口口口口 |----|
口口口口 |----|
口①①口 |--①-|


不确定度: 0

最終更新:2012年12月27日 16:46