POINT ZERO
猫叉Master+
ADVANCED
Level: 6
BPM: 188
Notes: 413
1
口口口口 |----|
口口口口 |----|
口口口口 |----|
口口口口 |----|
2
口口口口 |----|
口口口口 |----|
口口口口 |----|
口口口口 |----|
3
①口口口 |----|
口口口口 |----|
口口口口 |----|
口口口口 |①---|
4
口①①口 |①---|
口②②口 |--②-|
③口口③ |----|
口口口口 |--③-|
5
④口口④ |--①-|
口口口口 |--②-|
口②②口 |--③-|
①③③① |--④-|
6
口口口口 |----|
①口口① |①---|
②口口② |--②-|
口口口口 |----|
7
口口口口 |①---|
口口口口 |----|
口口口口
①口口①
口口口②
口口口③
口口口④ |----|
口口口⑤ |②③④⑤|
8
口口口口 |①---|
口口口口 |----|
口①①口 |----|
口口口口 |----|
9
口口口口 |①---|
口口口口 |----|
口口口口 |----|
口①①口 |----|
10
口①①口 |①---|
口口口口 |----|
口口口口 |----|
口口口口 |----|
11
口⑤⑤口 |①-②-|
①③③① |--③-|
②口口② |--④-|
口④④口 |--⑤-|
12
口口口口 |----|
口口口口 |----|
口口口口 |----|
口口口口 |----|
13
②口口② |①---|
口口口口 |----|
口①①口 |----|
口口口口 |--②-|
14
口口口口 |----|
①口口① |--①-|
②口口② |----|
口口口口 |--②-|
15
口口口口 |----|
口口口口 |--①-|
口①①口 |--②-|
口②②口 |----|
16
口⑧口④ |①-②-|
③口⑦口 |③-④-|
口⑥口② |⑤-⑥-|
①口⑤口 |⑦-⑧-|
17
口口②口 |①-②-|
口③口口 |③-④-|
口⑤④口 |----|
口①口口 |--⑤-|
18
④口⑧口 |①-②-|
口⑦口③ |③-④-|
②口⑥口 |⑤-⑥-|
口⑤口① |⑦-⑧-|
19
口②口口 |①-②-|
口口③口 |③-④-|
口④⑤口 |----|
口口①口 |--⑤-|
20
口⑧口④ |①-②-|
③口⑦口 |③-④-|
口⑥口② |⑤-⑥-|
①口⑤口 |⑦-⑧-|
21
⑤口②⑤ |①-②-|
口③口口 |③-④-|
口口④口 |----|
口①口口 |--⑤-|
22
口口口口 |----|
①口口① |--①-|
②口口② |----|
口口口口 |--②-|
23
口口口口 |----|
口口口口 |--①-|
口①①口 |--②-|
口②②口 |----|
24
口⑧口④ |①-②-|
③口⑦口 |③-④-|
口⑥口② |⑤-⑥-|
①口⑤口 |⑦-⑧-|
25
口口②口 |①-②-|
口③口口 |③-④-|
口⑤④口 |----|
口①口口 |--⑤-|
26
④口⑧口 |①-②-|
口⑦口③ |③-④-|
②口⑥口 |⑤-⑥-|
口⑤口① |⑦-⑧-|
27
口②口口 |①-②-|
口口③口 |③-④-|
口④⑤口 |----|
口口①口 |--⑤-|
28
口⑧口④ |①-②-|
③口⑦口 |③-④-|
口⑥口② |⑤-⑥-|
①口⑤口 |⑦-⑧-|
29
⑤口②⑤ |①-②-|
口③口口 |③-④-|
口口④口 |----|
口①口口 |--⑤-|
30
口口口口 |----|
①口口① |--①-|
②口口② |----|
口口口口 |--②-|
31
口口口口 |----|
口口口口 |--①-|
口①①口 |--②-|
口②②口 |----|
32
①②③口 |①---|
①②③口 |--②-|
口口口口 |----|
口口口口 |③---|
33
②口口① |--①-|
口口口① |----|
口口口口 |②---|
口口口口 |----|
34
口口口口 |①---|
口口口口 |--②-|
口③②① |----|
口③②① |③---|
35
口④③口 |--①-|
口②⑤口 |--②-|
①⑥口口 |③-④-|
①口口口 |⑤-⑥-|
36
⑥口⑤口 |①-②-|
口④口③ |--③-|
口口口口 |④---|
②口①口 |⑤-⑥-|
37
口口口② |--①-|
口口口口 |----|
口①①口 |②---|
口口口口 |----|
38
口口口口 |①---|
口口口口 |--②-|
口③②① |----|
口③②① |③---|
39
③口口③ |--①-|
口②②口 |----|
①口口口 |②---|
①口口口 |③---|
40
口口口口 |①---|
口口口口 |--②-|
①②③口 |----|
①②③口 |③---|
41
②口口口 |--①-|
口口口口 |----|
口口口① |②---|
口口口① |----|
42
口③②① |①---|
口③②① |--②-|
口口口口 |----|
口口口口 |③---|
43
①④③口 |--①-|
①口⑤口 |--②-|
口②口口 |③-④-|
⑥口口口 |⑤-⑥-|
44
口口口口 |①-②-|
口⑥口⑤ |--③-|
④口③口 |④---|
口②口① |⑤-⑥-|
45
②①①口 |--①-|
口口口口 |----|
口口口口 |②---|
口口口口 |----|
46
口①①口 |①---|
口②②口 |--②-|
口③③口 |----|
口口口口 |③---|
47
口口口口 |--①-|
口口口口 |----|
②口口② |②---|
③①①③ |③---|
48
①①口② |①---|
口③④口 |②-③-|
口③口口 |--④-|
⑤⑤口口 |⑤---|
49
④④口口 |①-②-|
②⑥口口 |--③-|
②⑥口① |④---|
口口③⑤ |⑤-⑥-|
50
口口口口 |--①-|
④口⑤口 |②---|
④口①③ |③-④-|
②②口口 |--⑤-|
51
①①④口 |①---|
口③口② |②-③-|
口③口口 |--④-|
⑤⑤口口 |⑤---|
52
④④口① |①-②-|
②⑥③口 |--③-|
②⑥口⑤ |④---|
口口口口 |⑤-⑥-|
53
口口口口 |--①-|
④口口口 |②---|
④口⑤口 |③-④-|
②②①③ |--⑤-|
54
①①④口 |①---|
口③口② |②-③-|
口③口口 |--④-|
⑤⑤口口 |⑤---|
55
④④口① |①-②-|
②口③口 |--③-|
②口口口 |④---|
口口口口 |----|
56
口口口口 |----|
口口口口 |----|
口口口口 |----|
口口口口 |----|
57
口口口口 |----|
口口口口 |----|
口口口口 |----|
口口口口 |----|
58
口口口口 |----|
口口口口 |----|
口口口口 |----|
口口口口 |----|
59
口口口口 |①---|
口口口口 |----|
口①①口 |----|
口②②口 |--②-|
60
口口口口 |----|
口口口口 |----|
口口口口 |----|
口口口口 |----|
61
口口口口 |----|
②口口② |①---|
口口口口 |----|
①口口① |--②-|
62
②口口② |----|
口口口口 |--①-|
①口口① |----|
口口口口 |--②-|
63
口口口口 |----|
口口口口 |----|
口①①口 |----|
口口口口 |--①-|
64
口口口口 |----|
口口口口 |----|
口口口口 |----|
口口口口 |----|
65
口口口口 |----|
②口口② |①---|
口口口口 |----|
①口口① |--②-|
66
口口口口 |----|
口口口口 |--①-|
①口口① |----|
口口口口 |----|
67
①口口① |①---|
口②口口 |②---|
口口③口 |③---|
⑤④口⑤ |④-⑤-|
68
口①口口 |----|
口口②口 |①---|
口③口口 |②---|
口口口口 |③---|
69
口口③口 |①---|
⑤④口⑤ |②---|
②口口② |③---|
口口①口 |④-⑤-|
70
④口口④ |----|
口口①口 |①-②-|
②口③② |----|
口口口口 |③-④-|
71
口口口口 |----|
口口①口 |①---|
口②口口 |②---|
④口③④ |③-④-|
72
口口①口 |----|
口②口口 |①---|
口口③口 |②---|
口口口口 |③---|
73
口口口口 |①---|
④③口④ |②---|
②口口② |----|
口①口口 |③-④-|
74
口口口口 |----|
口口①口 |①-②-|
②口口② |----|
口③③口 |③---|
75
①口②① |①---|
口③口口 |②---|
口口④口 |③---|
⑤口口⑤ |④-⑤-|
76
口①口口 |----|
口口②口 |①---|
口③口口 |②---|
口口口口 |③---|
77
口口口口 |①---|
④口③④ |②---|
②口口② |----|
口口①口 |③-④-|
78
④口口④ |----|
口①口口 |①-②-|
②口③② |----|
口口口口 |③-④-|
79
口①口口 |----|
口口②口 |①---|
口③口口 |②---|
④口口④ |③-④-|
80
口口①口 |----|
口②口口 |①---|
口口③口 |②---|
口口口口 |③---|
81
口口口口 |①---|
④口口④ |②---|
②口③② |----|
口①口口 |③-④-|
82
口④④口 |----|
口①口③ |①-②-|
②口口② |----|
口口口口 |③-④-|
83
口口口① |--①-|
口②②口 |②---|
口④④③ |③-④-|
口口口⑤ |--⑤-|
84
口口口口 |①---|
口②口口 |②-③-|
③口口③ |----|
口①①口 |----|
不确定度: 0