STARGAZER
BLOOD STAIN CHILD

ADVANCED

Level: 3
BPM: 150
Notes: 188

1
口口口口 |----|
口口口口 |----|
口口口口 |----|
口口口口 |----|
2
口①口口 |①---|
口②口口 |----|
口口口口 |②---|
口口口口 |----|
3
口口①口 |①---|
口口②口 |----|
口口口口 |②---|
口口口口 |----|
4
口①口口 |①---|
口②口口 |----|
口口口口 |②---|
口口口口 |----|
5
口口①口 |①---|
口口②口 |----|
口口口口 |②---|
口口口口 |----|
6
口①口口 |①---|
口②口口 |----|
口口口口 |②---|
口口口口 |----|
7
口口①口 |①---|
口口②口 |----|
口口口口 |②---|
口口口口 |----|
8
口①口口 |①---|
口②口口 |----|
口口口口 |②---|
口口口口 |----|
9
口口①口 |①---|
口口②口 |----|
口口口口 |②---|
口口口口 |----|
10
口口口口 |①---|
①口口口 |----|
②口口口 |②---|
口口口口 |----|
11
口口口口 |①---|
口口口① |----|
口口口② |②---|
口口口口 |----|
12
口口口口 |①---|
①口口口 |----|
②口口口 |②---|
口口口口 |----|
13
口口口口 |①---|
口口口① |----|
口口口② |②---|
口口口口 |----|
14
①②③④ |①---|
口口口口 |②---|
口口口口 |③---|
口口口口 |④---|
15
口口口口 |①---|
口口口口 |②---|
④③②① |③---|
口口口口 |④---|
16
①②③④ |①---|
口口口口 |②---|
口口口口 |③---|
口口口口 |④---|
17
口口口口 |①---|
口口口口 |②---|
④③②① |③---|
口口口口 |④---|
18
口口口口 |----|
口口口口 |----|
口口口口 |----|
口口口口 |----|
19
口口口口 |----|
口口口口 |----|
口口口口 |----|
口口口口 |----|
20
①②③口 |--①-|
口口口④ |②-③-|
口口⑤口 |--④-|
口口口口 |--⑤-|
21
口口口口 |--①-|
口①口口 |--②-|
②口④口 |--③-|
口③口口 |--④-|
22
口③②① |--①-|
④口口口 |②-③-|
口⑤口口 |--④-|
口口口口 |--⑤-|
23
口口口④ |--①-|
口口①口 |--②-|
口口口② |--③-|
口口③口 |--④-|
24
口口①口 |①---|
口②口口 |--②-|
③口口口 |----|
口口口口 |③---|
25
口口口口 |----|
口口口口 |----|
口口口口 |----|
口口口口 |----|
26
口⑤口口 |--①-|
④口口口 |②-③-|
口③②① |--④-|
口口口口 |--⑤-|
27
口口口口 |--①-|
口口①口 |--②-|
口④口② |--③-|
口口③口 |--④-|
28
①②③口 |--①-|
口口口④ |②-③-|
口口⑤口 |--④-|
口口口口 |--⑤-|
29
口口口口 |--①-|
口①口口 |--②-|
②口④口 |--③-|
口③口口 |--④-|
30
口③②① |--①-|
④口口口 |②-③-|
口⑤口口 |--④-|
口口口口 |--⑤-|
31
口口口口 |--①-|
口口①口 |--②-|
口口口② |--③-|
口④③口 |④---|
32
口口口口 |①---|
口②口口 |--②-|
①口口口 |----|
口口③口 |③---|
33
口口口口 |①---|
口口②口 |--②-|
口口口① |----|
口③口口 |③---|
34
①口口口 |①---|
口口口② |②---|
③口口口 |③---|
口口口④ |④---|
35
②口口口 |①---|
③①①口 |----|
口口口口 |----|
口口口口 |②-③-|
36
口③口① |①-②-|
口口④② |--③-|
口⑤口口 |--④-|
口口口口 |--⑤-|
37
口口口③ |--①-|
口口口④ |--②-|
口口口② |----|
口口①口 |③-④-|
38
①口③口 |①-②-|
②④口口 |--③-|
口口⑤口 |--④-|
口口口口 |--⑤-|
39
③口口口 |--①-|
④口口口 |--②-|
②口口口 |----|
口①口口 |③-④-|
40
口③口① |①-②-|
口口④② |--③-|
口⑤口口 |--④-|
口口口口 |--⑤-|
41
口口口口 |--①-|
口口③口 |--②-|
口口口② |--③-|
口口①口 |----|
42
①口口① |①---|
口口口口 |--②-|
②口口② |----|
口口口口 |----|
43
口口口口 |----|
①口口口 |----|
口口口② |----|
口口口口 |①-②-|
44
口口口口 |①---|
口口口口 |--②-|
口②口口 |----|
①口口口 |----|
45
口口①口 |----|
口②口口 |①---|
口③③口 |②---|
口口口口 |--③-|
46
口口口口 |①---|
口口口口 |----|
口口口口 |----|
①口口① |----|
47
口口口口 |①---|
口口口① |----|
口口口② |②---|
口口口口 |----|
48
口口口口 |①---|
①口口口 |----|
②口口口 |②---|
口口口口 |----|
49
口口口口 |①---|
口口口① |----|
口口口② |②---|
口口口口 |----|
50
①②③④ |①---|
口口口口 |②---|
口口口口 |③---|
口口口口 |④---|
51
口口口口 |①---|
口口口口 |②---|
④③②① |③---|
口口口口 |④---|
52
①②③④ |①---|
口口口口 |②---|
口口口口 |③---|
口口口口 |④---|
53
口口口口 |①---|
口口口口 |②---|
④③②① |③---|
口口口口 |④---|
54
口①口口 |①---|
口②口口 |----|
口口口口 |②---|
口口口口 |----|
55
口口口口 |①---|
口口口口 |----|
口口①口 |②---|
口口②口 |----|
56
口口①口 |①---|
口口②口 |----|
口口口口 |②---|
口口口口 |----|
57
口口口口 |①---|
口口口口 |----|
口①口口 |②---|
口②口口 |----|
58
口①口口 |①---|
口②口口 |----|
口口口口 |②---|
口口口口 |----|
59
口口口口 |①---|
口口口口 |----|
口口①口 |②---|
口口②口 |----|
60
口口①口 |①---|
口口②口 |----|
口口口口 |②---|
口口口口 |----|
61
口口口口 |①---|
口口口口 |----|
口①口口 |②---|
口②口口 |----|
62
口①口口 |①---|
口②口口 |----|
口口口口 |②---|
口口口口 |----|
63
口口口口 |①---|
口口口口 |----|
口口①口 |②---|
口口②口 |----|
64
口口①口 |①---|
口口②口 |----|
口口口口 |②---|
口口口口 |----|
65
口口口口 |①---|
口口口口 |----|
口①口口 |②---|
口②口口 |----|


不确定度: 0

最終更新:2012年12月11日 23:19