STARGAZER
BLOOD STAIN CHILD

ADVANCED

Level: 7
BPM: 150
Notes: 549

1
口口口口 |----|
口口口口 |----|
口口口口 |----|
口口口口 |----|
2
⑩⑤①⑧ |①②③-|
⑪②⑥⑨ |④-⑤⑥|
口⑦③口 |⑦-⑧⑨|
④口口口 |-⑩⑪-|
3
⑩⑤①⑧ |①②③-|
⑪②⑥⑨ |④-⑤⑥|
口⑦③口 |⑦-⑧⑨|
④口口口 |-⑩⑪-|
4
⑩⑤①⑧ |①②③-|
⑪②⑥⑨ |④-⑤⑥|
口⑦③口 |⑦-⑧⑨|
④口口口 |-⑩⑪-|
5
⑩⑤①⑧ |①②③-|
⑪②⑥⑨ |④-⑤⑥|
口⑦③口 |⑦-⑧⑨|
④口口口 |-⑩⑪-|
6
⑧口口⑩ |①②③-|
⑨③⑦⑪ |④-⑤⑥|
④⑥②口 |⑦-⑧⑨|
口①⑤口 |-⑩⑪-|
7
⑧口口⑩ |①②③-|
⑨③⑦⑪ |④-⑤⑥|
④⑥②口 |⑦-⑧⑨|
口①⑤口 |-⑩⑪-|
8
⑧口口⑩ |①②③-|
⑨③⑦⑪ |④-⑤⑥|
④⑥②口 |⑦-⑧⑨|
口①⑤口 |-⑩⑪-|
9
⑧口口⑩ |①②③-|
⑨③⑦⑪ |④-⑤⑥|
④⑥②口 |⑦-⑧⑨|
口①⑤口 |-⑩⑪-|
10
⑩⑤①⑧ |①②③-|
⑪②⑥⑨ |④-⑤⑥|
口⑦③口 |⑦-⑧⑨|
④口口口 |-⑩⑪-|
11
⑩⑤①⑧ |①②③-|
⑪②⑥⑨ |④-⑤⑥|
口⑦③口 |⑦-⑧⑨|
④口口口 |-⑩⑪-|
12
⑩⑤①⑧ |①②③-|
⑪②⑥⑨ |④-⑤⑥|
口⑦③口 |⑦-⑧⑨|
④口口口 |-⑩⑪-|
13
⑩⑤①⑧ |①②③-|
⑪②⑥⑨ |④-⑤⑥|
口⑦③口 |⑦-⑧⑨|
④口口口 |-⑩⑪-|
14
⑧口口⑩ |①②③-|
⑨③⑦⑪ |④-⑤⑥|
④⑥②口 |⑦-⑧⑨|
口①⑤口 |-⑩⑪-|
15
⑧口口⑩ |①②③-|
⑨③⑦⑪ |④-⑤⑥|
④⑥②口 |⑦-⑧⑨|
口①⑤口 |-⑩⑪-|
16
⑧口口⑩ |①②③-|
⑨③⑦⑪ |④-⑤⑥|
④⑥②口 |⑦-⑧⑨|
口①⑤口 |-⑩⑪-|
17
⑧口口⑩ |①②③-|
⑨③⑦⑪ |④-⑤⑥|
④⑥②口 |⑦-⑧⑨|
口①⑤口 |-⑩⑪-|
18
口口口口 |----|
口口口口 |----|
口口口口 |----|
口口口口 |----|
19
口口口口 |----|
口口口口 |----|
口口口口 |----|
口口口口 |----|
20
口口①口 |--①-|
口②口口 |②-③-|
③口口口
口口口口

口口⑤口
口口口口
口口④口 |--④-|
口口口口 |--⑤-|
21
①口④口 |--①-|
口口口口 |--②-|
②口③口 |--③-|
口口口口 |--④-|
22
口①口口 |--①-|
口口②口 |②-③-|
口口口③
口口口口

口⑤口口
口口口口
口④口口 |--④-|
口口口口 |--⑤-|
23
口④口① |--①-|
口口口口 |--②-|
口③口② |--③-|
口口口口 |--④-|
24
①口口口 |①---|
口口③口 |--②-|
口③口口 |----|
口口口② |③---|
25
口口口口 |----|
口口口口 |----|
口口口口 |----|
口口口口 |----|
26
口口口口 |--①-|
⑤口④口 |②-③-|
口②口口 |--④-|
①口③口 |--⑤-|
27
口口口口 |--①-|
④口③口 |--②-|
口口口口 |--③-|
①口②口 |--④-|
28
口口①口 |--①-|
口②口口 |②-③-|
③口口口
口口口口

口口⑤口
口口口口
口口④口 |--④-|
口口口口 |--⑤-|
29
①口④口 |--①-|
口口口口 |--②-|
②口③口 |--③-|
口口口口 |--④-|
30
口①口口 |--①-|
口口②口 |②-③-|
口口口③
口口口口

口⑤口口
口口口口
口④口口 |--④-|
口口口口 |--⑤-|
31
口口口① |--①-|
口口口口 |--②-|
④③口② |--③-|
口口口口 |④---|
32
口①①口 |①---|
②③③② |--②-|
口口口口 |----|
口口口口 |③---|
33
口口口口 |①---|
③口口③ |--②-|
①口口① |----|
②口口② |③---|
34
口④①口 |①-②-|
口②⑤口 |③-④-|
口⑥③⑧ |⑤-⑥-|
口口⑦口 |⑦-⑧-|
35
口①①口 |----|
口口口口 |----|
口口口口 |----|
口②②口 |①-②-|
36
⑤口口口 |①-②-|
①③④① |--③-|
②④③② |--④-|
口口口⑤ |--⑤-|
37
口③③① |--①-|
口②②口 |--②-|
口②②口 |----|
①④④口 |③-④-|
38
口口口⑤ |①-②-|
①④③① |--③-|
②③④② |--④-|
⑤口口口 |--⑤-|
39
①③③口 |--①-|
口②②口 |--②-|
口②②口 |----|
口④④① |③-④-|
40
⑤口口口 |①-②-|
①③④① |--③-|
②④③② |--④-|
口口口⑤ |--⑤-|
41
口口口① |--①-|
②口口③ |--②-|
③口口② |--③-|
①口口口 |----|
42
②②②② |①---|
口口口口 |--②-|
口①①口 |----|
口①①口 |----|
43
口口口口 |----|
①口口① |----|
口②②口 |----|
口口口口 |①-②-|
44
②口口② |①---|
口口口口 |--②-|
口口口口 |----|
①口口① |----|
45
口①①口 |----|
②口口② |①---|
③口口③ |②--③|
口④④口 |--④-|
46
⑩⑤①⑧ |①②③-|
⑪②⑥⑨ |④-⑤⑥|
口⑦③口 |⑦-⑧⑨|
④口口口 |-⑩⑪-|
47
⑩⑤①⑧ |①②③-|
⑪②⑥⑨ |④-⑤⑥|
口⑦③口 |⑦-⑧⑨|
④口口口 |-⑩⑪-|
48
⑩⑤①⑧ |①②③-|
⑪②⑥⑨ |④-⑤⑥|
口⑦③口 |⑦-⑧⑨|
④口口口 |-⑩⑪-|
49
⑩⑤①⑧ |①②③-|
⑪②⑥⑨ |④-⑤⑥|
口⑦③口 |⑦-⑧⑨|
④口口口 |-⑩⑪-|
50
⑧口口⑩ |①②③-|
⑨③⑦⑪ |④-⑤⑥|
④⑥②口 |⑦-⑧⑨|
口①⑤口 |-⑩⑪-|
51
⑧口口⑩ |①②③-|
⑨③⑦⑪ |④-⑤⑥|
④⑥②口 |⑦-⑧⑨|
口①⑤口 |-⑩⑪-|
52
⑧口口⑩ |①②③-|
⑨③⑦⑪ |④-⑤⑥|
④⑥②口 |⑦-⑧⑨|
口①⑤口 |-⑩⑪-|
53
⑧口口⑩ |①②③-|
⑨③⑦⑪ |④-⑤⑥|
④⑥②口 |⑦-⑧⑨|
口①⑤口 |-⑩⑪-|
54
⑩⑤①⑧ |①②③-|
⑪②⑥⑨ |④-⑤⑥|
口⑦③口 |⑦-⑧⑨|
④口口口 |-⑩⑪-|
55
⑩⑤①⑧ |①②③-|
⑪②⑥⑨ |④-⑤⑥|
口⑦③口 |⑦-⑧⑨|
④口口口 |-⑩⑪-|
56
⑩⑤①⑧ |①②③-|
⑪②⑥⑨ |④-⑤⑥|
口⑦③口 |⑦-⑧⑨|
④口口口 |-⑩⑪-|
57
⑩⑤①⑧ |①②③-|
⑪②⑥⑨ |④-⑤⑥|
口⑦③口 |⑦-⑧⑨|
④口口口 |-⑩⑪-|
58
⑩⑤①⑧ |①②③-|
⑪②⑥⑨ |④-⑤⑥|
口⑦③口 |⑦-⑧⑨|
④口口口 |-⑩⑪-|
59
⑩⑤①⑧ |①②③-|
⑪②⑥⑨ |④-⑤⑥|
口⑦③口 |⑦-⑧⑨|
④口口口 |-⑩⑪-|
60
⑩⑤①⑧ |①②③-|
⑪②⑥⑨ |④-⑤⑥|
口⑦③口 |⑦-⑧⑨|
④口口口 |-⑩⑪-|
61
⑩⑤①⑧ |①②③-|
⑪②⑥⑨ |④-⑤⑥|
口⑦③口 |⑦-⑧⑨|
④口口口 |-⑩⑪-|
62
⑩⑤①⑧ |①②③-|
⑪②⑥⑨ |④-⑤⑥|
口⑦③口 |⑦-⑧⑨|
④口口口 |-⑩⑪-|
63
⑩⑤①⑧ |①②③-|
⑪②⑥⑨ |④-⑤⑥|
口⑦③口 |⑦-⑧⑨|
④口口口 |-⑩⑪-|
64
⑩⑤①⑧ |①②③-|
⑪②⑥⑨ |④-⑤⑥|
口⑦③口 |⑦-⑧⑨|
④口口口 |-⑩⑪-|
65
⑩⑤①⑧ |①②③-|
⑪②⑥⑨ |④-⑤⑥|
口⑦③口 |⑦-⑧⑨|
④口口口 |-⑩⑪-|


不确定度: 0

最終更新:2012年12月11日 23:19