STARGAZER
BLOOD STAIN CHILD

EXTREME

Level: 10
BPM: 150
Notes: 699

1
口口口口 |----|
口口口口 |----|
口口口口 |----|
口口口口 |----|
2
①⑤口④ |①②③-|
②⑥口口 |④-⑤⑥|
③口口口
口口口口

口口⑧口
口口⑨口
⑩⑦口口 |⑦-⑧⑨|
⑪口口口 |-⑩⑪-|
3
④口⑤① |①②③-|
口口⑥② |④-⑤⑥|
口口口③
口口口口

口⑧口口
口⑨口口
口口⑦⑩ |⑦-⑧⑨|
口口口⑪ |-⑩⑪-|
4
①⑤口④ |①②③-|
②⑥口口 |④-⑤⑥|
③口口口
口口口口

口口⑧口
口口⑨口
⑩⑦口口 |⑦-⑧⑨|
⑪口口口 |-⑩⑪-|
5
④口⑤① |①②③-|
口口⑥② |④-⑤⑥|
口口口③
口口口口

口⑧口口
口⑨口口
口口⑦⑩ |⑦-⑧⑨|
口口口⑪ |-⑩⑪-|
6
①⑧口⑤ |①②③-|
⑥口⑨② |④-⑤⑥|
③⑩④⑦ |⑦-⑧⑨|
口口⑪口 |-⑩⑪-|
7
①⑧口⑤ |①②③-|
⑥口⑨② |④-⑤⑥|
③⑩④⑦ |⑦-⑧⑨|
口口⑪口 |-⑩⑪-|
8
①⑧①⑤ |①②③-|
⑥口⑨② |④-⑤⑥|
③⑩④⑦ |⑦-⑧⑨|
⑨⑦⑪⑪ |-⑩⑪-|
9
①口①⑤ |①②③-|
⑥口口② |④-⑤⑥|
③口④口
口口口口

口⑧口口
口口⑨⑩
口⑪口⑦ |⑦-⑧⑨|
口⑦⑫⑩ |⑩⑪⑫-|
10
①⑤①口 |①②③-|
口②⑥口 |④-⑤⑥|
⑩⑦③⑧ |⑦-⑧⑨|
④⑪⑨口 |-⑩⑪-|
11
口⑤①口 |①②③-|
口②⑥口 |④-⑤⑥|
⑩⑦③⑧ |⑦-⑧⑨|
④⑪⑨口 |-⑩⑪-|
12
①⑤①口 |①②③-|
口②⑥口 |④-⑤⑥|
⑩⑦③⑧ |⑦-⑧⑨|
④⑪⑨口 |-⑩⑪-|
13
口⑤①口 |①②③-|
口②⑥口 |④-⑤⑥|
⑩⑦③⑧ |⑦-⑧⑨|
④⑪⑨口 |-⑩⑪-|
14
⑧⑤①⑧ |①②③-|
⑤④⑨② |④-⑤⑥|
口⑥③⑩ |⑦-⑧⑨|
⑦⑪⑪③ |-⑩⑪-|
15
⑧⑤①⑧ |①②③-|
⑤④⑨② |④-⑤⑥|
口⑥③⑩ |⑦-⑧⑨|
⑦⑪⑪③ |-⑩⑪-|
16
⑧⑤①⑧ |①②③-|
⑤④⑨② |④-⑤⑥|
口⑥③⑩ |⑦-⑧⑨|
⑦⑪⑪③ |-⑩⑪-|
17
口⑤①口 |①②③-|
⑤④口② |④-⑤⑥|
口⑥③口
口口口③

口口口⑧
口口⑨口
口口口⑩ |⑦-⑧⑨|
⑦⑧⑪⑪ |-⑩⑪-|
18
①⑤⑨⑬ |①②③④|
②⑥⑩⑭ |⑤⑥⑦⑧|
③⑦⑪⑮ |⑨⑩⑪⑫|
④⑧⑫⑯ |⑬⑭⑮⑯|
19
①⑤⑨⑬ |①②③④|
②⑥⑩⑭ |⑤⑥⑦⑧|
③⑦⑪⑮ |⑨⑩⑪⑫|
④⑧⑫⑯ |⑬⑭⑮⑯|
20
口①⑤④ |--①-|
①②③⑤ |②-③-|
口③口口 |--④-|
口口口口 |--⑤-|
21
②①口口 |--①-|
③口口口 |--②-|
④口口① |--③-|
口④③② |--④-|
22
④⑤①口 |--①-|
⑤③②① |②-③-|
口口③口 |--④-|
口口口口 |--⑤-|
23
口口①② |--①-|
口口口③ |--②-|
①口口口 |--③-|
②③口④ |--④-|
24
③③③口 |①---|
③②②④ |--②-|
③②①口 |----|
口口口④ |③-④-|
25
口口③② |--①-|
口④①口 |--②-|
口口③② |--③-|
口④①口 |--④-|
26
④①口口 |--①-|
①⑤②口 |②-③-|
口②口③ |--④-|
口口③口 |--⑤-|
27
口口口② |--①-|
④口③口 |--②-|
口④①口 |--③-|
④口④口 |--④-|
28
口口①④ |--①-|
口②⑤① |②-③-|
③口②口 |--④-|
口③口口 |--⑤-|
29
②口口口 |--①-|
口③口④ |--②-|
口①④口 |--③-|
口④口④ |--④-|
30
④①口口 |--①-|
①⑤②口 |②-③-|
口②口③ |--④-|
口口③口 |--⑤-|
31
口口口② |--①-|
口口口口 |--②-|
口③①口 |--③-|
④口口口 |④---|
32
口②口口 |①---|
②①②口 |--②-|
①②①口
口①口口

③口③口
口③口口
③口口口 |----|
口口口口 |③---|
33
口口口口 |①---|
口口②① |--②-|
口②①②
口①②①

口口③口
口③口③
口口③口 |----|
口口口口 |③---|
34
口④口① |①-②-|
③口②口 |③-④-|
口②口③
①口④口

⑤口⑧⑧
口⑥口⑦
⑦口⑥口 |⑤-⑥-|
⑧⑧口⑤ |⑦-⑧-|
35
⑤口⑥口 |①-②-|
①⑧④口 |③-④-|
⑦③⑧② |⑤-⑥-|
口⑦口口 |⑦-⑧-|
36
口③③口 |①-②-|
④口②④ |--③-|
口②口① |--④-|
⑤口①⑤ |--⑤-|
37
①口口① |--①-|
②口④② |--②-|
口④口③ |----|
口口③口 |③-④-|
38
口④④口 |①-②-|
③②口③ |--③-|
①口②口 |--④-|
⑤①口⑤ |--⑤-|
39
②口口② |--①-|
①④口① |--②-|
③口④口 |----|
口③口口 |③-④-|
40
口③③口 |①-②-|
④口②④ |--③-|
口②口① |--④-|
⑤口①⑤ |--⑤-|
41
①口口① |--①-|
口口口口 |--②-|
②口口② |--③-|
③口口③ |----|
42
口②①② |①---|
口①②① |--②-|
口②①② |----|
口口口口 |----|
43
口口口① |----|
口口口口 |----|
口口口① |----|
②口②口 |①-②-|
44
②①②口 |①---|
①②①口 |--②-|
②①②口 |----|
口口口口 |----|
45
④口口① |----|
②口③口 |①---|
口③口② |②--③|
①口口④ |--④-|
46
口⑤①口 |①②③-|
口②⑥① |④-⑤⑥|
①口③口
④①口口

口口口口
口口口口
⑩⑦口⑧ |⑦-⑧⑨|
口⑪⑨口 |-⑩⑪-|
47
口⑤①口 |①②③-|
口②⑥口 |④-⑤⑥|
⑩⑦③⑧ |⑦-⑧⑨|
④⑪⑨口 |-⑩⑪-|
48
口⑤①口 |①②③-|
口②⑥口 |④-⑤⑥|
⑩⑦③⑧ |⑦-⑧⑨|
④⑪⑨口 |-⑩⑪-|
49
口⑤①口 |①②③-|
口②⑥口 |④-⑤⑥|
⑩⑦③⑧ |⑦-⑧⑨|
④⑪⑨口 |-⑩⑪-|
50
口⑤①口 |①②③-|
⑤④口② |④-⑤⑥|
口⑥③口
口口口③

⑧口口⑧
口口⑨口
口口口⑩ |⑦-⑧⑨|
⑦口⑪⑪ |-⑩⑪-|
51
口⑤①口 |①②③-|
⑤④口② |④-⑤⑥|
口⑥③口
口③口口

⑧口口⑧
口口⑨口
口口口⑩ |⑦-⑧⑨|
⑦⑪⑪口 |-⑩⑪-|
52
⑧⑤①⑧ |①②③-|
⑤④⑨② |④-⑤⑥|
口⑥③⑩ |⑦-⑧⑨|
⑦⑪⑪③ |-⑩⑪-|
53
口⑤①口 |①②③-|
⑤④口② |④-⑤⑥|
口⑥③口
口口口③

口口口⑧
口口⑨口
口口口⑩ |⑦-⑧⑨|
⑦⑧⑪⑪ |-⑩⑪-|
54
①⑧口⑤ |①②③-|
⑥口⑨② |④-⑤⑥|
③⑩④⑦ |⑦-⑧⑨|
口口⑪口 |-⑩⑪-|
55
①⑧口⑤ |①②③-|
⑥口⑨② |④-⑤⑥|
③⑩④⑦ |⑦-⑧⑨|
口口⑪口 |-⑩⑪-|
56
①⑧口⑤ |①②③-|
⑥口⑨② |④-⑤⑥|
③⑩④⑦ |⑦-⑧⑨|
口口⑪口 |-⑩⑪-|
57
①⑧口⑤ |①②③-|
⑥口⑨② |④-⑤⑥|
③⑩④⑦ |⑦-⑧⑨|
口口⑪口 |-⑩⑪-|
58
①⑧口⑤ |①②③-|
⑥口⑨② |④-⑤⑥|
③⑩④⑦ |⑦-⑧⑨|
口口⑪口 |-⑩⑪-|
59
①⑧口⑤ |①②③-|
⑥口⑨② |④-⑤⑥|
③⑩④⑦ |⑦-⑧⑨|
口口⑪口 |-⑩⑪-|
60
①⑧口⑤ |①②③-|
⑥口⑨② |④-⑤⑥|
③⑩④⑦ |⑦-⑧⑨|
口口⑪口 |-⑩⑪-|
61
①⑧口⑤ |①②③-|
⑥口⑨② |④-⑤⑥|
③⑩④⑦ |⑦-⑧⑨|
口口⑪口 |-⑩⑪-|
62
①⑧口⑤ |①②③-|
⑥口⑨② |④-⑤⑥|
③⑩④⑦ |⑦-⑧⑨|
口口⑪口 |-⑩⑪-|
63
①⑧口⑤ |①②③-|
⑥口⑨② |④-⑤⑥|
③⑩④⑦ |⑦-⑧⑨|
口口⑪口 |-⑩⑪-|
64
①⑧口⑤ |①②③-|
⑥口⑨② |④-⑤⑥|
③⑩④⑦ |⑦-⑧⑨|
口口⑪口 |-⑩⑪-|
65
①⑧口⑤ |①②③-|
⑥口⑨② |④-⑤⑥|
③⑩④⑦ |⑦-⑧⑨|
口口⑪口 |-⑩⑪-|


不确定度: 0

最終更新:2012年12月11日 23:18