Mynarco
positive MAD-crew

EXTREME

Level: 10
BPM: 181
Notes: 820

1
口口口口 |----|
口口口口 |----|
口口口口 |----|
口口口口 |----|
2
口⑥⑥口 |①---|
⑤④①⑤ |②-③-|
口②③口 |④---|
①口口④ |⑤-⑥-|
3
⑥口口② |--①-|
口③④口 |②-③-|
口口口口 |④-⑤-|
①口口⑤ |⑥---|
4
口口口口 |①---|
①⑤⑥④ |②-③-|
③④①② |④---|
口口口口 |⑤-⑥-|
5
⑥④②口 |--①-|
口口口口 |②-③-|
⑤③①口 |④-⑤-|
口口口口 |⑥---|
6
口⑥②口 |①---|
口口④口 |②-③-|
口口口口 |④---|
①⑤③① |⑤-⑥-|
7
④口口② |--①-|
①口口⑥ |②-③-|
⑤口口③ |④-⑤-|
口口口口 |⑥---|
8
口⑥④口 |①---|
②口口口 |②-③-|
口⑤③口 |④---|
①口口① |⑤-⑥-|
9
②⑯⑮① |①②③④|
⑭④③⑬ |⑤⑥⑦⑧|
⑥⑩⑨⑤ |⑨⑩⑪⑫|
⑫⑧⑦⑪ |⑬⑭⑮⑯|
10
②口口① |①---|
口口口口 |--②-|
口③③口 |----|
口口口口 |③---|
11
口口口口 |①---|
口①①口 |②-③-|
③④④② |----|
口口口口 |④---|
12
口口口口 |①---|
口①②口 |--②-|
③口口③ |----|
口①②口 |③---|
13
①⑩⑦② |①-②-|
口⑤③口 |③-④-|
口⑧⑨口 |⑤-⑥-|
口⑥④口 |⑦⑧⑨⑩|
14
口口口口 |①---|
②口口① |--②-|
口③③口 |----|
口口口口 |③---|
15
口口口口 |①---|
④②①③ |--②-|
口口口口 |--③-|
口口口口 |④---|
16
口口口③ |①---|
口口口③ |--②-|
①口口② |----|
①口口② |③---|
17
②⑯①⑮ |①②③④|
④⑭③⑬ |⑤⑥⑦⑧|
⑥⑫⑤⑪ |⑨⑩⑪⑫|
⑧⑩⑦⑨ |⑬⑭⑮⑯|
18
口口口口 |①-②-|
②口①⑦ |③-④-|
口口口⑦ |⑤-⑥-|
④⑥③⑤ |⑦---|
19
①②口口 |①-②-|
⑦口口口 |③-④-|
⑦④③口 |⑤-⑥-|
口口⑤⑥ |⑦---|
20
②口口① |①-②-|
口口③口 |③-④-|
口④④口 |----|
⑤口口⑤ |⑤---|
21
口①②口 |①②③④|
口③④口 |⑤⑥⑦⑧|
⑨⑤⑥⑩ |----|
⑪⑦⑧⑫ |⑨⑩⑪⑫|
22
口③②口 |①-②-|
①口口④ |③-④-|
口⑤⑥口 |⑤-⑥-|
口⑦⑦口 |⑦---|
23
口口②① |①-②-|
口③口口 |③-④-|
⑤口口④ |----|
⑤口口④ |⑤---|
24
口②①口 |①②③④|
口④③口 |⑤⑥⑦⑧|
口⑥⑤口
口⑧⑦口

⑩口⑪口
口口口口
口口口⑨ |----|
⑫口口口 |⑨⑩⑪⑫|
25
口④口口 |①②③④|
⑥②口① |⑤⑥⑦⑧|
口口⑦口
口⑧⑤③

⑫口⑬⑨
口⑯⑪口
⑩口口⑮ |⑨⑩⑪⑫|
⑭口口口 |⑬⑭⑮⑯|
26
⑥②口口 |①-②-|
口口⑤① |③-④-|
④口⑤⑦ |⑤-⑥-|
口⑧③① |⑦-⑧-|
27
口口⑤① |①-②-|
⑧②口① |③-④-|
④⑥口口 |⑤-⑥-|
口口③⑦ |⑦-⑧-|
28
口④口口 |①-②-|
口口③① |③-④-|
口口口①
口②口口

口口⑤⑤
口口口⑧
口口口口 |⑤-⑥-|
⑥口⑦⑦ |⑦-⑧-|
29
②④⑥⑧ |①②③④|
⑩⑫⑭⑯ |⑤⑥⑦⑧|
①③⑤⑦ |⑨⑩⑪⑫|
⑨⑪⑬⑮ |⑬⑭⑮⑯|
30
①①⑤⑤ |①-②-|
口⑦口口 |③-④-|
口⑥②③ |⑤-⑥-|
④口⑧口 |⑦-⑧-|
31
④口口口 |①-②-|
①口口② |③-④-|
①口口③
口口口口

口口口口
口口⑤口
⑧口口口 |⑤-⑥-|
⑥口⑦⑦ |⑦-⑧-|
32
⑤⑤①① |①-②-|
口③口口 |③-④-|
⑧②口④ |⑤-⑥-|
口口⑥⑦ |⑦-⑧-|
33
⑬⑨⑤① |①②③④|
②③⑪⑩ |⑤⑥⑦⑧|
⑯⑫⑧④ |⑨⑩⑪⑫|
⑥⑦⑮⑭ |⑬⑭⑮⑯|
34
⑦⑤③① |①-②-|
②④⑥⑧ |③-④-|
⑦⑤③① |⑤-⑥-|
口口口口 |⑦-⑧-|
35
口⑧⑦⑦ |①-②-|
⑤④口口 |③-④-|
口口⑥② |⑤-⑥-|
①①口③ |⑦-⑧-|
36
⑥口⑦⑦ |①-②-|
口口①① |③-④-|
⑧②⑤⑤ |⑤-⑥-|
④口③口 |⑦-⑧-|
37
⑫⑯⑩⑭ |①②③④|
④⑧②⑥ |⑤⑥⑦⑧|
⑮⑪⑬⑨ |⑨⑩⑪⑫|
⑦③⑤① |⑬⑭⑮⑯|
38
口口④口 |①-②-|
⑤⑤①⑥ |③-④-|
⑦⑦口⑧ |⑤-⑥-|
③②口① |⑦-⑧-|
39
①①⑤⑤ |①-②-|
④口⑦⑦ |③-④-|
口口②口 |⑤-⑥-|
⑥⑧③口 |⑦-⑧-|
40
口④⑦口 |①②③④|
⑧口口口 |⑤⑥⑦⑧|
②⑥口③
口口⑤①

⑩口口⑪
口⑭⑬口
⑯口⑨口 |⑨⑩⑪⑫|
口⑫口⑮ |⑬⑭⑮⑯|
41
口②⑤口 |①②③④|
⑧口口① |⑤⑥⑦⑧|
口④口⑦
⑥口③口

⑫⑯口⑨
口口⑪⑮
⑭口⑬口 |⑨⑩⑪⑫|
口⑩口口 |⑬⑭⑮⑯|
42
⑧⑦③④ |①-②-|
口口口口 |③-④-|
口口口口 |⑤-⑥-|
⑤⑥②① |⑦-⑧-|
43
⑧口口⑥ |①-②-|
②④口口 |③-④-|
口口③① |⑤-⑥-|
⑦口口⑤ |⑦-⑧-|
44
⑬④⑤⑨ |①②③④|
⑭⑥③⑩ |⑤⑥⑦⑧|
⑮②⑦⑪ |⑨⑩⑪⑫|
⑯⑧①⑫ |⑬⑭⑮⑯|
45
口⑧③口 |①-②-|
口⑥②口 |③-④-|
口⑦④口 |⑤-⑥-|
口⑤①口 |⑦-⑧-|
46
口口②⑥ |①---|
①口⑥③ |②-③-|
④⑥口① |④-⑤-|
⑥⑤口口 |⑥---|
47
⑤①⑥口 |①-②-|
②⑤口⑦ |③-④-|
口口⑤③ |⑤---|
口口④⑤ |⑥-⑦-|
48
口④口③ |①-②-|
⑤口③口 |③---|
①③口⑥ |④-⑤-|
③②⑦口 |⑥-⑦-|
49
①⑥口⑤ |①---|
⑥①③口 |②-③-|
口②①⑥ |④-⑤-|
④口⑥① |⑥---|
50
④⑥口口 |①---|
⑥①口② |②-③-|
⑤口①⑥ |④-⑤-|
口口⑥③ |⑥---|
51
口口⑤① |①-②-|
口③⑥⑤ |③-④-|
⑤口②口 |⑤---|
④⑤口⑦ |⑥-⑦-|
52
①③口⑤ |①-②-|
③⑦口口 |③---|
口②④③ |④-⑤-|
⑥口③口 |⑥-⑦-|
53
②口①④ |①---|
口⑥⑥① |②-③-|
①⑥⑥口 |④-⑤-|
⑤①口③ |⑥---|
54
口④②⑥ |①---|
①口口⑥ |②-③-|
⑥口口① |④-⑤-|
⑥③⑤口 |⑥---|
55
⑤口③口 |①-②-|
⑤②⑥口 |③-④-|
口⑦①⑤ |⑤---|
口④口⑤ |⑥-⑦-|
56
口②④③ |①-②-|
口口⑥③ |③---|
③⑦口口 |④-⑤-|
③⑤①口 |⑥-⑦-|
57
①④口② |①---|
①口⑥⑥ |②-③-|
⑥⑥口① |④-⑤-|
⑤口③① |⑥---|
58
①口②④ |①---|
⑥口口⑥ |②-③-|
口⑥⑥① |④-⑤-|
口口③⑤ |⑥---|
59
③①⑦⑥ |①-②-|
口⑤⑤口 |③-④-|
⑤口口⑤ |⑤---|
④②口口 |⑥-⑦-|
60
④⑤口口 |①-②-|
③口口③ |③---|
口③③口 |④-⑤-|
⑥⑦②① |⑥-⑦-|
61
⑥⑥口口 |①---|
③①①⑤ |②-③-|
①②④① |④-⑤-|
口口⑥⑥ |⑥---|
62
口口口④ |①-②-|
口口③口 |③-④-|
⑤②⑦⑤ |⑤---|
①口口⑥ |⑥-⑦-|
63
②口口⑧ |①-②-|
③①⑦口 |③-④-|
④⑥口口 |⑤-⑥-|
⑤口口口 |⑦-⑧-|
64
①①口口 |①-②-|
⑦⑦口④ |③-④-|
⑤口⑥② |⑤-⑥-|
⑤③⑧口 |⑦-⑧-|
65
①①口⑦ |①-②-|
⑧口③⑦ |③-④-|
口④口② |⑤-⑥-|
⑥口口⑤ |⑦-⑧-|
66
口③口口 |①-②-|
⑧③⑦⑦ |③-④-|
①⑤②④ |⑤-⑥-|
⑥⑤口口 |⑦-⑧-|
67
④③②① |①②③④|
⑬⑭⑮⑯ |⑤⑥⑦⑧|
⑧⑦⑥⑤ |⑨⑩⑪⑫|
⑨⑩⑪⑫ |⑬⑭⑮⑯|
68
①①口口 |①-②-|
口口口口 |③-④-|
③③口②
④口口口

口⑧⑤⑤
口⑥口⑦
口口口口 |⑤-⑥-|
口口口⑦ |⑦-⑧-|
69
口口④口 |①-②-|
口口①口 |③-④-|
口口①②
口③口口

口⑦口口
⑤⑤口⑥
口⑦⑧口 |⑤-⑥-|
口口口口 |⑦-⑧-|
70
口⑧⑤⑤ |①-②-|
口④②口 |③-④-|
①⑥口口 |⑤-⑥-|
①口③⑦ |⑦-⑧-|
71
⑮⑯⑩⑨ |①②③④|
③④⑥⑤ |⑤⑥⑦⑧|
⑦⑧②① |⑨⑩⑪⑫|
⑪⑫⑭⑬ |⑬⑭⑮⑯|
72
口口⑤⑤ |①-②-|
②⑧③口 |③-④-|
口④①① |⑤-⑥-|
⑥口⑦⑦ |⑦-⑧-|
73
④②口口 |①-②-|
口口口③ |③-④-|
口口①①
口口口口

口口⑥口
口口⑤口
口口口⑧ |⑤-⑥-|
⑦⑦口口 |⑦-⑧-|
74
③③⑤④ |①-②-|
口口⑤⑦ |③-④-|
①①口⑦ |⑤-⑥-|
⑥⑧口② |⑦-⑧-|
75
④⑫⑭⑤ |①②③④|
⑪③⑥⑬ |⑤⑥⑦⑧|
⑯⑦②⑩ |⑨⑩⑪⑫|
⑧⑮⑨① |⑬⑭⑮⑯|
76
②⑤⑧③ |①-②-|
口⑤③口 |③-④-|
口④①⑥ |⑤-⑥-|
⑦⑦口① |⑦-⑧-|
77
①⑤口口 |①-②-|
⑦⑦口③ |③-④-|
①⑤②⑧ |⑤-⑥-|
口口⑥④ |⑦-⑧-|
78
⑥口①口 |①②③④|
口口⑤③ |⑤⑥⑦⑧|
②口⑦口
⑧④口口

口⑭口⑨
⑫口口口
⑯⑩口⑬ |⑨⑩⑪⑫|
口口⑮⑪ |⑬⑭⑮⑯|
79
④⑭①⑪ |①②③④|
⑫⑧⑤③ |⑤⑥⑦⑧|
⑯⑩⑦⑬ |⑨⑩⑪⑫|
⑥②⑮⑨ |⑬⑭⑮⑯|


不确定度: 0

最終更新:2013年01月12日 22:19