天体観測
ADVANCED
Level: 4
BPM: 165
Notes: 332
1
口口口口 |----|
口口口口 |----|
口口口口 |----|
口口口口 |----|
2
口①口口 |①---|
口口口口 |----|
口口口口 |----|
口口口口 |----|
3
口口口口 |①---|
口口①口 |----|
口口口② |②---|
口口口口 |----|
4
口口口口 |①---|
口口口① |----|
口口口口 |----|
口口口口 |----|
5
口口口口 |①---|
口口口口 |----|
口口①口 |②---|
口②口口 |----|
6
口口口口 |①---|
口口口口 |----|
口口口口 |----|
口口①口 |----|
7
口口口口 |①---|
②口口口 |----|
口①口口 |②---|
口口口口 |----|
8
口口口口 |①---|
口口口口 |----|
①口口口 |----|
口口口口 |----|
9
口口②口 |①---|
口①口口 |----|
口口口口 |②---|
口口口口 |----|
10
口口口口 |①---|
口①①口 |----|
口①①口 |----|
②口口② |--②-|
11
口口口口 |----|
口口口口 |--①-|
①口口① |----|
口口口口 |----|
12
口口口口 |①---|
口①口口 |----|
口①口口 |----|
口口口口 |----|
13
口口口口 |①---|
口口①口 |----|
口口①口 |----|
口口口口 |----|
14
口口口口 |①---|
口口口口 |----|
①口口口 |②---|
②口口口 |----|
15
口口口③ |①---|
口口②口 |②---|
口①口口 |③---|
口口口口 |----|
16
口口口口 |①---|
口①②口 |----|
口口口口 |②---|
口口口口 |----|
17
口口口口 |①---|
口口口口 |----|
口②①口 |②---|
口口口口 |----|
18
①口口① |①---|
②口口② |②---|
③口口③ |③---|
口口口口 |----|
19
口口口口 |①---|
②口口② |----|
②口口② |②---|
①口口① |----|
20
口口口口 |①---|
口①口口 |----|
口①口口 |----|
口口口口 |----|
21
口口口口 |①---|
口口①口 |----|
口口①口 |----|
口口口口 |----|
22
口口口口 |①---|
口口口口 |----|
口口口① |②---|
口口口② |----|
23
③口口口 |①---|
口②口口 |②---|
口口①口 |③---|
口口口口 |----|
24
口口口口 |①---|
口②①口 |----|
口口口口 |②---|
口口口口 |----|
25
口口口口 |①---|
口口口口 |----|
口①②口 |②---|
口口口口 |----|
26
①口口口 |①---|
口②口口 |②---|
口口③③ |③---|
口口③③ |----|
27
口口口① |①---|
口口②口 |②---|
③③口口 |③---|
③③口口 |----|
28
口①①口 |①---|
口口口口 |----|
②口口② |②---|
口口口口 |----|
29
口口口口 |①---|
②①①② |----|
口③③口 |②---|
口口口口 |③---|
30
③口口③ |①---|
口口口口 |②---|
口口口口 |----|
①②②① |③---|
31
口口口口 |①---|
①④④① |②---|
②④④② |③---|
③口口③ |④---|
32
口②②口 |①---|
口口口口 |----|
口口口口 |②---|
口①①口 |----|
33
口口口口 |①---|
①口口② |----|
①口口② |②---|
口口口口 |----|
34
口口口口 |①---|
①口口口 |②---|
②口口口 |③---|
口③④口 |④---|
35
口④③口 |①---|
口口口② |②---|
口口口① |③---|
口口口口 |④---|
36
①口口③ |①---|
②①③④ |②---|
口②④口 |③---|
口口口口 |④---|
37
口口口口 |①---|
口口口口 |②---|
③口口③ |③---|
②①①② |----|
38
①口口③ |①---|
②①③④ |②---|
口②④口 |③---|
口口口口 |④---|
39
口口口口 |①---|
口口口口 |②---|
③口口③ |③---|
②①①② |----|
40
口①①口 |①---|
①口口① |----|
②口口② |----|
口②②口 |②---|
41
口口口口 |----|
口口口口 |----|
口①①口 |①---|
口口口口 |----|
42
口口口口 |①---|
口①①口 |----|
②口口② |②---|
②③③② |③---|
43
口③③口 |①---|
②口口② |②---|
口①①口 |③---|
口口口口 |----|
44
①口口③ |①---|
②①③④ |②---|
口②④口 |③---|
口口口口 |④---|
45
口口口口 |①---|
口口口口 |②---|
③口口③ |③---|
②①①② |----|
46
①口口③ |①---|
②①③④ |②---|
口②④口 |③---|
口口口口 |④---|
47
口口口口 |①---|
口口口口 |②---|
③口口③ |③---|
②①①② |----|
48
口①①口 |①---|
①口口① |----|
②口口② |----|
口②②口 |②---|
49
口口口口 |----|
口口口口 |----|
口①①口 |①---|
口口口口 |----|
50
口口口口 |①---|
口①①口 |----|
②口口② |②---|
②③③② |③---|
51
口③③口 |①---|
②口口② |②---|
口①①口 |③---|
口口口口 |----|
52
①口口③ |①---|
②①③④ |②---|
口②④口 |③---|
口口口口 |④---|
53
口口口口 |①---|
口口口口 |②---|
③口口③ |③---|
②①①② |----|
54
①口口③ |①---|
②①③④ |②---|
口②④口 |③---|
口口口口 |④---|
55
口口口口 |①---|
口口口口 |②---|
③口口③ |③---|
②①①② |----|
56
口①①口 |①---|
①口口① |----|
②口口② |----|
口②②口 |②---|
57
口口口口 |----|
口口口口 |----|
口①①口 |①---|
口口口口 |----|
58
口口口口 |①---|
口①①口 |----|
②口口② |②---|
②③③② |③---|
59
口③③口 |①---|
②口口② |②---|
口①①口 |③---|
口口口口 |----|
60
①口口③ |①---|
②①③④ |②---|
口②④口 |③---|
口口口口 |④---|
61
口口口口 |①---|
口口口口 |②---|
③口口③ |③---|
②①①② |----|
62
①口口③ |①---|
②①③④ |②---|
口②④口 |③---|
口口口口 |④---|
63
口口口口 |①---|
口口口口 |②---|
③口口③ |③---|
②①①② |----|
64
口①①口 |①---|
①口口① |----|
②口口② |----|
口②②口 |②---|
65
口口口口 |----|
口口口口 |----|
口①①口 |①---|
口口口口 |----|
66
口口口口 |①---|
②①①② |----|
②口口② |②---|
口③③口 |③---|
67
口③③口 |①---|
口②②口 |②---|
口①①口 |③---|
口④④口 |④---|
68
口③③口 |①---|
①③③① |----|
①②②① |----|
口口口口 |②-③-|
不确定度: 0