抱いてセニョリータ

BASIC

Level: 2
BPM: 144
Notes: 172

1
口口口口 |----|
口口口口 |----|
口口口口 |----|
口口口口 |----|
2
口口口口 |①---|
口口口口 |----|
口①①口 |----|
口口口口 |----|
3
口口口口 |①---|
①口口② |----|
口口口口 |②---|
口口口口 |----|
4
口口口口 |①---|
口①②口 |----|
口口口口 |②---|
口口口口 |----|
5
口口口口 |①---|
口②②口 |----|
口①①口 |②---|
口口口口 |----|
6
②①①口 |①---|
口口口口 |----|
口口口口 |②---|
口口口口 |----|
7
口口口口 |①---|
口①口口 |----|
口口②口 |②---|
口口口口 |----|
8
口①①② |①---|
口口口口 |----|
口口口口 |②---|
口口口口 |----|
9
口口口口 |①---|
口口①口 |----|
口②口口 |②---|
口口口口 |----|
10
口口口口 |①---|
①口口口 |----|
口②口口 |②---|
口口口口 |----|
11
口口口口 |①---|
口口口② |----|
口口①口 |②---|
口口口口 |----|
12
口口口口 |①---|
②口口② |②---|
口①①口 |----|
口口口口 |----|
13
口①①口 |①---|
口②②口 |----|
口口口口 |②---|
口口口口 |----|
14
①②口口 |①---|
口口口口 |----|
口口口口 |②---|
口口口口 |----|
15
口口②① |①---|
口口口口 |----|
口口口口 |②---|
口口口口 |----|
16
口口口口 |①---|
①②口口 |----|
口口口口 |②---|
口口口口 |----|
17
口口口口 |①---|
口口②① |----|
口口口口 |②---|
口口口口 |----|
18
口口口口 |①---|
口口口口 |----|
口口口口 |②---|
①②口口 |----|
19
口口口口 |①---|
口口口口 |----|
口口口口 |②---|
口口②① |----|
20
口口口口 |①---|
口口口口 |----|
①②口口 |②---|
口口口口 |----|
21
口口口口 |①---|
口口口口 |----|
口口②① |②---|
口口口口 |----|
22
口①①口 |①-②-|
口②②口 |--③-|
口③③口 |----|
口口口口 |----|
23
口口口口 |①---|
①口口② |----|
口口口口 |②---|
口口口口 |----|
24
口口口口 |①-②-|
③口口③ |③---|
②口口② |----|
①口口① |----|
25
口口口口 |①---|
②口口① |----|
口口口口 |②---|
口口口口 |----|
26
口口口口 |①---|
口①口口 |----|
口口②口 |②---|
口口口口 |----|
27
口口口口 |①---|
口口①口 |----|
口②口口 |②---|
口口口口 |----|
28
①口口① |①---|
②口口② |----|
口口口口 |②---|
口口口口 |----|
29
口口口口 |①---|
口口口口 |----|
口①①口 |----|
口口口口 |----|
30
口口口口 |①---|
②口口② |----|
①口口① |②---|
口口口口 |----|
31
①②④③ |①---|
口口口口 |②---|
口口口口 |③---|
口口口口 |④---|
32
口口口口 |①---|
①④④② |②---|
口③③口 |③---|
口口口口 |④---|
33
①②④③ |①---|
口口口口 |②---|
口口口口 |③---|
口口口口 |④---|
34
口口口口 |①---|
①④④② |②---|
口③③口 |③---|
口口口口 |④---|
35
口口口口 |①---|
①②口口 |----|
口口口口 |②---|
口口口口 |----|
36
口口口口 |①---|
口口②① |----|
口口口口 |②---|
口口口口 |----|
37
口口口口 |①---|
口口口口 |----|
①口口① |②---|
口②②口 |----|
38
口口口口 |①---|
口口口口 |----|
口①①口 |----|
口口口口 |----|
39
①②④③ |①---|
口口口口 |②---|
口口口口 |③---|
口口口口 |④---|
40
口口口口 |①---|
①④④② |②---|
口③③口 |③---|
口口口口 |④---|
41
①②④③ |①---|
口口口口 |②---|
口口口口 |③---|
口口口口 |④---|
42
口口口口 |①---|
①④④② |②---|
口③③口 |③---|
口口口口 |④---|
43
口口口口 |①---|
口口口口 |----|
①口口口 |----|
口口口口 |----|
44
口口口口 |①---|
口口口口 |----|
口口口① |----|
口口口口 |----|
45
口口口口 |①---|
口口口口 |----|
口①①口 |----|
口口口口 |----|
46
口口口口 |①---|
①口口① |----|
口口口口 |----|
口口口口 |----|
47
口①①口 |①---|
口②②口 |②---|
口③③口 |③---|
口④④口 |④---|
48
口口口口 |①---|
口口口口 |----|
①口口① |----|
口口口口 |----|
49
②①①口 |①---|
口口口口 |----|
口口口口 |②---|
口口口口 |----|
50
口口口口 |①---|
口①口口 |----|
口口②口 |②---|
口口口口 |----|
51
口①①② |①---|
口口口口 |----|
口口口口 |②---|
口口口口 |----|
52
口口口口 |①---|
口口①口 |----|
口②口口 |②---|
口口口口 |----|
53
口口口口 |①---|
①口口口 |----|
口②口口 |②---|
口口口口 |----|
54
口口口口 |①---|
口口口② |----|
口口①口 |②---|
口口口口 |----|
55
口口口口 |①---|
②口口② |②---|
口①①口 |----|
口口口口 |----|
56
①②③④ |①---|
口口口口 |②---|
口口口口 |③---|
口口口口 |④---|
57
口口口口 |①---|
②②②② |--②-|
口①①口 |----|
口口口口 |----|


不确定度: 0

最終更新:2012年12月03日 22:07