Rush!!
kors k feat. 吉河順央

ADVANCED

Level: 8
BPM: 210
Notes: 568

1
口口口口 |----|
口口口口 |----|
口口口口 |----|
口口口口 |----|
2
④④口口 |①-②-|
口口口③ |③-④-|
口⑥②口 |----|
口①⑤口 |⑤-⑥-|
3
口口②② |①-②-|
①③③口 |----|
④口口④ |③---|
口口口口 |④---|
4
④④口口 |①-②-|
口口口③ |③-④-|
口⑥②口 |----|
口①⑤口 |⑤-⑥-|
5
③③②② |①-②-|
①④④口 |--③-|
口口口口 |--④-|
口口口口 |----|
6
④④口口 |①-②-|
口口口③ |③-④-|
口⑥②口 |----|
口①⑤口 |⑤-⑥-|
7
口口②② |①-②-|
①③③口 |----|
④口口④ |③---|
口口口口 |④---|
8
④④口口 |①-②-|
口⑤⑤③ |③-④-|
⑥口②⑥ |--⑤-|
口①口口 |--⑥-|
9
口口口① |--①-|
②口口口 |②-③-|
口口③口 |④---|
口④口口 |----|
10
④①①口 |①---|
④①①口 |----|
②口③② |②---|
口口③口 |③-④-|
11
口②②口 |----|
口口口口 |----|
口口口口 |----|
口①①口 |①-②-|
12
口口口口 |----|
口②②口 |----|
口口口口 |----|
口①①口 |①-②-|
13
①②口⑥ |--①-|
⑤口口口 |②-③-|
口⑦口④ |④-⑤-|
口口口③ |⑥-⑦-|
14
③口口口 |----|
③口口口 |----|
①口②① |①---|
口口②口 |②-③-|
15
口②②① |----|
口口口① |----|
口③③口 |①---|
口口口口 |②-③-|
16
口②②口 |----|
①口口① |----|
口口口口 |----|
口口口口 |①-②-|
17
③口口③ |--①-|
口③③口 |--②-|
①②②① |--③-|
②口口② |----|
18
口口③口 |----|
②口口① |①---|
②口④① |②---|
口口口口 |③-④-|
19
口口口口 |--①-|
⑤口口④ |--②-|
口口口③ |--③-|
②①口口 |④-⑤-|
20
口口⑤⑤ |①-②-|
⑥⑥③口 |③-④-|
①口②口 |--⑤-|
④④口口 |--⑥-|
21
口口②② |----|
③③口口 |--①-|
口口口口 |--②-|
①①口口 |--③-|
22
口口④④ |----|
口口②① |①---|
③口②① |②---|
口口口口 |③-④-|
23
口③口口 |--①-|
口④口口 |--②-|
口①⑤口 |--③-|
口口②口 |④-⑤-|
24
③口口④ |①---|
③口口④ |②-③-|
口⑤⑤口 |--④-|
①①口② |--⑤-|
25
③③口口 |----|
口口②② |----|
口口口口 |①-②-|
口口①① |--③-|
26
口口③③ |----|
②②口口 |----|
口口口口 |①-②-|
①①口口 |--③-|
27
口口口口 |----|
口③③口 |----|
口口口口 |①-②-|
②口口① |--③-|
28
口口④口 |----|
口口口口 |①---|
①③口② |②---|
口口口口 |③-④-|
29
口口口口 |----|
口口口口 |----|
口口口口 |----|
口口口口 |----|
30
口口口口 |----|
口口口口 |①---|
②口④② |②---|
①③口① |③-④-|
31
③口②③ |①-②-|
口①④口 |--③-|
口⑤口口 |----|
口口口口 |④-⑤-|
32
口口口口 |----|
口口口口 |----|
口口口① |----|
口口①口 |①---|
33
口口口口 |①---|
②②口口 |----|
口口①口 |②---|
口口口① |----|
34
口口①① |①---|
②②口口 |----|
①①口口 |----|
口口口口 |②---|
35
口口②② |①---|
口口口口 |----|
口口①① |②---|
口口口口 |----|
36
口口口口 |①---|
口口②② |----|
口口口口 |----|
口口①① |②---|
37
②②口口 |①---|
口口口口 |----|
①①口口 |②---|
口口口口 |----|
38
口口口口 |①---|
③口口② |----|
③口口② |----|
①①口口 |②-③-|
39
口口④口 |①---|
口②①口 |②-③-|
口⑤①口 |--④-|
口③口口 |--⑤-|
40
①口口① |----|
②口口② |----|
口口口口 |----|
口口口口 |①-②-|
41
口②②口 |①---|
口④④口 |②-③-|
①③③① |--④-|
口⑤⑤口 |--⑤-|
42
③口口③ |----|
①口口① |----|
②口口② |--①-|
口口口口 |②-③-|
43
口口口口 |----|
③①②口 |----|
③①②口 |--①-|
口口口口 |②-③-|
44
③②②③ |①---|
口④④① |②-③-|
口口口① |----|
口⑤⑤口 |④-⑤-|
45
口口口口 |----|
②口口② |----|
口①①口 |①---|
口口口口 |②---|
46
①①①① |①---|
口口②口 |----|
口口口口 |----|
口③口口 |②-③-|
47
口口口② |----|
口口②口 |----|
口①口口 |①---|
①口口口 |②---|
48
口口②口 |①---|
口口口② |----|
①口③口 |②---|
口①口③ |--③-|
49
口口口口 |----|
口口口口 |----|
②②口口 |①---|
①①口口 |②---|
50
④④①① |①---|
口口③口 |②-③-|
⑤⑤口② |--④-|
口口口口 |--⑤-|
51
口口口口 |----|
②口口口 |----|
口口口口 |①---|
①口口口 |②---|
52
口④口① |①---|
口口③口 |②-③-|
口②⑤口 |--④-|
口口口口 |--⑤-|
53
口口④④ |----|
①②③口 |----|
口口口口 |①-②-|
口口口口 |③-④-|
54
①口口口 |--①-|
口口口口 |②-③-|
口④③② |④-⑤-|
⑤⑤⑥⑥ |--⑥-|
55
口口②② |--①-|
口①口口 |②---|
③④⑤口 |--③-|
口口口口 |④-⑤-|
56
口口④④ |①---|
②③①① |②-③-|
口口⑤⑤ |--④-|
口口口口 |--⑤-|
57
口口口口 |--①-|
口口口口 |②---|
口口口口 |----|
②①口③ |--③-|
58
③③口口 |①---|
②口口口 |②-③-|
口口口① |----|
④口口口 |--④-|
59
口口③③ |①---|
口口口② |②-③-|
①④④口 |----|
口口口口 |--④-|
60
④口口④ |①---|
②①①② |②-③-|
③⑤⑤③ |--④-|
口口口口 |--⑤-|
61
口口口口 |----|
①口口① |----|
②口口② |①---|
口口口口 |②---|
62
口②②口 |①---|
口①①口 |--②-|
口③③口 |--③-|
④口口④ |--④-|
63
②口口② |----|
口口口口 |----|
口口口口 |①---|
口①①口 |②---|
64
口口口口 |①---|
口①①口 |----|
②口口② |②---|
口③③口 |--③-|
65
口口口口 |----|
②口口① |----|
②口口① |①---|
口口口口 |②---|
66
④①①④ |①---|
口口③口 |②-③-|
口②口口 |--④-|
口⑤⑤口 |--⑤-|
67
口②口口 |----|
口口口口 |----|
口①口口 |①---|
口口口口 |②---|
68
口口①口 |①---|
口③④口 |②-③-|
⑤口②⑤ |--④-|
口口口口 |--⑤-|
69
③③口口 |----|
口口口口 |----|
口口②口 |①-②-|
①口口口 |--③-|
70
口口口口 |----|
③④②① |①-②-|
口⑤⑤口 |③-④-|
口口口口 |--⑤-|
71
口口口口 |--①-|
④口③② |----|
①口口① |--②-|
口口口口 |③-④-|
72
④④②② |①---|
口①⑤⑤ |②-③-|
③③口口 |--④-|
口口口口 |--⑤-|
73
口口口口 |--①-|
口口口口 |----|
口口口② |----|
口①①口 |--②-|
74
①④④③ |①---|
⑤①③⑤ |②-③-|
②口口口 |--④-|
口口口口 |--⑤-|
75
口口口口 |--①-|
口口口口 |----|
口①①② |----|
口口口口 |--②-|
76
①④④③ |①---|
⑤①③⑤ |②-③-|
②口口口 |--④-|
口口口口 |--⑤-|
77
口④④口 |--①-|
口口口口 |--②-|
③①①③ |--③-|
②口口② |--④-|
78
③③口口 |----|
口口口口 |----|
口口②口 |①-②-|
口口①口 |--③-|
79
口口③③ |----|
口口口口 |----|
口②口口 |①-②-|
口①口口 |--③-|
80
③③口口 |----|
口口口口 |----|
口口②口 |①-②-|
口口①口 |--③-|
81
口口⑦⑤ |--①-|
④⑥③口 |②-③-|
②口口口 |④-⑤-|
口口口① |⑥-⑦-|
82
①口口② |①---|
口口③口 |----|
口口口口 |----|
口口口口 |②-③-|
83
口口口口 |①---|
口口口口 |----|
口①口口 |----|
口口口口 |----|
84
口口口口 |----|
口口口口 |----|
口口口口 |----|
口口口口 |----|
85
⑥口口③ |①---②-|
⑤⑥③② |--③---|
④⑤②① |④---⑤-|
口④①口 |--⑥---|
86
口①①口 |①---|
口③③口 |----|
口口口口 |----|
口②②口 |②-③-|
87
⑥③①口 |--①-|
口口口口 |②-③-|
口④②⑤ |④---|
口口口口 |⑤-⑥-|
88
口口③① |--①-|
口口④口 |②---|
②⑤口口 |③-④-|
口⑥口口 |⑤-⑥-|
89
口①口口 |--①-|
口口口口 |②-③-|
口口③口 |----|
口口②口 |----|
90
①③④② |①---|
③①②④ |②---|
口口口口 |③---|
②④③① |④---|
91
①③④② |①---|
口⑤⑤口 |②---|
④②①③ |③---|
②④③① |④---⑤-|
92
口①口口 |----|
口口口口 |----|
口口②口 |--①-|
口③口口 |②-③-|
93
口口口⑤ |--①-|
④⑥③口 |②-③-|
②口口⑦ |④-⑤-|
口口口① |⑥-⑦-|
94
④④口口 |①-②-|
口口口③ |③-④-|
口⑥②口 |----|
口①⑤口 |⑤-⑥-|
95
口口②② |①-②-|
①③③口 |----|
④口口④ |③---|
口口口口 |④---|
96
④④口口 |①-②-|
口⑤⑤③ |③-④-|
⑥口②⑥ |--⑤-|
口①口口 |--⑥-|
97
口口口① |--①-|
②口口口 |②-③-|
口④③⑦ |④-⑤-|
口⑥⑤⑦ |⑥-⑦-|


不确定度: 0

最終更新:2012年11月06日 23:03