Rush!!
kors k feat. 吉河順央

EXTREME

Level: 9
BPM: 210
Notes: 813

1
口口口口 |----|
口口口口 |----|
口口口口 |----|
口口口口 |----|
2
①④④口 |①-②-|
①⑥⑤口 |③-④-|
口⑥⑤② |----|
口③③② |⑤-⑥-|
3
口③③① |①-②-|
口口口① |----|
②口口口 |③---|
②④④口 |④---|
4
④⑤⑥① |①-②-|
④⑤⑥① |--③-|
②口口③ |④---|
②口口③ |⑤-⑥-|
5
口口口③ |--①-|
口④④③ |--②-|
②②口口 |--③-|
①①口口 |--④-|
6
①④④口 |①-②-|
①⑥⑥口 |③-④-|
口⑤⑤② |----|
口③③② |⑤-⑥-|
7
口③③① |①-②-|
口口口① |----|
②口口口 |③---|
②④④口 |④---|
8
④⑥⑥③ |①-②-|
口②①口 |③-④-|
⑤①②⑤ |--⑤-|
③口口④ |--⑥-|
9
口口口口 |--①-|
口口②① |②-③-|
口④③口 |④-⑤-|
⑦⑤口⑥ |⑥-⑦-|
10
①①①① |①---|
口口②② |②---|
口③④口 |③---|
⑤④③⑤ |④-⑤-|
11
口口⑥⑦ |--①-|
①②③④ |②-③-|
⑤口⑥⑦ |④-⑤-|
口口口口 |⑥-⑦-|
12
⑤⑤⑤⑤ |①---|
②②④④ |②---|
口口口口 |③---|
①口口③ |④-⑤-|
13
口口口口 |--①-|
⑤③口口 |②-③-|
⑧⑥①④ |④-⑤⑥|
⑧②⑦④ |⑦-⑧-|
14
⑤⑤②② |①---|
口口①口 |②---|
口口④④ |③---|
口③⑤⑤ |④-⑤-|
15
口口⑥⑥ |--①-|
①②③④ |②-③-|
⑤口⑦⑦ |④-⑤-|
口口口口 |⑥-⑦-|
16
⑥⑥口口 |--①-|
①②③④ |②-③-|
口口口口 |--④-|
⑤⑤口口 |⑤-⑥-|
17
口口④③ |--①-|
⑤⑥口口 |--②-|
②②⑧⑦ |③④⑤⑥|
⑨⑩①① |⑦⑧⑨⑩|
18
②②口④ |①---|
口口①① |②---|
③③⑤口 |③---|
口口口口 |④-⑤-|
19
口口口口 |--①-|
口口口口 |--②-|
④口口⑤ |--③-|
②②③① |④-⑤-|
20
③口⑤⑤ |①-②-|
口①②⑤ |③-④-|
⑥④④口 |--⑤-|
⑥⑥口口 |--⑥-|
21
③③口口 |----|
③①①口 |--①-|
口口口② |--②-|
口口②② |--③-|
22
口④④① |----|
口口口① |①---|
②口口口 |②---|
②③③口 |③-④-|
23
口口口口 |--①-|
口口①口 |--②-|
口⑤④口 |--③-|
③口口② |④-⑤-|
24
③③①① |①---|
口口口口 |②-③-|
口口口② |--④-|
④④⑤⑤ |--⑤-|
25
③③③③ |----|
①口①口 |----|
口②口② |①-②-|
口口口口 |--③-|
26
④④④④ |----|
口②口② |①---|
③口③口 |②-③-|
口①①口 |--④-|
27
口口口口 |----|
③②④④ |①---|
③②口口 |②-③-|
口①①口 |--④-|
28
口④③口 |----|
口口口口 |①---|
口③④口 |②---|
②②①① |③-④-|
29
口口口② |--①-|
口①②口 |--②-|
①口口口 |--③-|
③③④④ |--④-|
30
①口口口 |----|
④③口口 |①---|
口口口② |②---|
口口口口 |③-④-|
31
③③③③ |①-②-|
口口①② |--③-|
口口口④ |----|
⑤口口口 |④-⑤-|
32
④口口④ |----|
口③③口 |①---|
口②②口 |②-③-|
口①①口 |④---|
33
口口口口 |①-②-|
①口口① |③-④-|
③⑦⑤口 |⑤-⑥-|
④⑧⑥② |⑦-⑧-|
34
⑥口①① |①---|
⑤②②⑤ |②---|
④口口口 |③-④-|
③口口口 |⑤-⑥-|
35
口④②③ |①---|
口口③口 |②---|
④③口② |③---|
③口口① |④---|
36
①③②口 |①---|
③①口口 |②---|
口口①口 |----|
口②口① |③---|
37
口口③口 |①---|
口④②口 |②---|
口②⑤① |③-④-|
口⑥①口 |⑤-⑥-|
38
⑤口口② |①---|
①口⑥① |②---|
①口口① |③-④-|
口口③④ |⑤-⑥-|
39
口①①口 |①---|
④⑤口④ |②-③-|
②⑥口③ |--④-|
口⑦口口 |-⑤⑥⑦|
40
①①②① |--①-|
口口②口 |--②-|
④⑤⑤③ |③---|
④口口③ |④-⑤-|
41
口口口口 |①---|
①④④① |②-③-|
⑧⑦⑥⑤ |--④-|
口②③口 |⑤⑥⑦⑧|
42
口④③③ |①---|
②⑥⑥口 |②-③-|
口口口口 |--④-|
口口⑤① |⑤-⑥-|
43
②口口② |----|
③口口③ |①---|
④①①④ |--②-|
口口口口 |③-④-|
44
口②②口 |①---|
④①①④ |②-③-|
口③③口 |----|
⑤口口⑤ |④-⑤-|
45
②口口① |--①-|
⑤②①⑤ |②-③-|
④口口③ |④---|
口④③口 |⑤---|
46
口①①口 |①---|
口②②口 |----|
口①①口 |----|
③口口③ |②-③-|
47
②②口口 |----|
口口口口 |----|
口口①① |①---|
口口口口 |②---|
48
口口口② |①---|
口①①② |----|
③口口口 |②---|
③口口口 |--③-|
49
口口口口 |----|
②口口口 |----|
口口②① |①---|
口①口口 |②---|
50
④①①④ |①---|
口口口口 |②-③-|
口⑤⑤口 |--④-|
②口口③ |--⑤-|
51
口①口口 |----|
①口口口 |----|
口口口② |①---|
口口②口 |②---|
52
口④④口 |①---|
⑤①①⑤ |②-③-|
口②③口 |--④-|
口口口口 |--⑤-|
53
④④口口 |----|
口口口口 |----|
口口口口 |①-②-|
①②③口 |③-④-|
54
口口口① |--①-|
口口口② |②-③-|
口口口③ |④-⑤-|
⑤口⑥④ |--⑥-|
55
口口口口 |--①-|
⑤口口口 |②---|
④口②口 |--③-|
③①口口 |④-⑤-|
56
④④①① |①---|
口②口口 |②-③-|
口口③口 |--④-|
口口⑤⑤ |--⑤-|
57
口口口口 |--①-|
口口①口 |②---|
口②③口 |----|
口口口口 |--③-|
58
口③③口 |①---|
①口口② |②-③-|
口④口口 |----|
口口口口 |--④-|
59
③④口③ |①---|
口②①口 |②-③-|
口口口口 |----|
口口口口 |--④-|
60
口口④④ |①---|
口口②口 |②-③-|
⑤⑤①口 |--④-|
口③口口 |--⑤-|
61
口口口口 |----|
①①③③ |----|
口口口口 |①-②-|
④④②② |③-④-|
62
②口③① |①---|
④⑤口口 |②-③-|
口口⑥① |④-⑤-|
⑦⑦口口 |⑥-⑦-|
63
②口③口 |----|
④口⑤口 |①---|
口口口口 |②-③-|
口口①① |④-⑤-|
64
⑥⑥口⑥ |①---|
口口口⑤ |②-③-|
④口①① |④-⑤-|
②口③口 |--⑥-|
65
口口口口 |----|
口④③口 |①---|
口口①① |②-③-|
②口口⑤ |④-⑤-|
66
⑤⑤口口 |①---|
口口口④ |②-③-|
②③⑥⑥ |④-⑤-|
口①①口 |--⑥-|
67
口口②② |----|
③③口口 |①---|
②②口口 |②---|
①①③③ |③---|
68
口③⑤口 |①---|
口口①① |②-③-|
④口口② |④-⑤-|
⑥口口⑥ |--⑥-|
69
⑧口口⑧ |--①②|
⑧①④⑧ |③-④⑤|
⑦②⑤⑦ |⑥-⑦-|
口③⑥口 |--⑧-|
70
口口①⑤ |----|
口②口口 |①-②-|
口④⑤口 |③-④-|
口口③④ |--⑤-|
71
①口口口 |--①-|
③②①口 |--②-|
口口口④ |--③-|
②⑤口口 |④-⑤-|
72
②②⑥① |①---|
⑤⑤⑥① |②-③-|
口④口口 |④-⑤-|
口口③③ |--⑥-|
73
口口口② |--①-|
口口口② |②---|
口③口口 |----|
①①口口 |--③-|
74
⑤⑤①③ |①---|
口口口④ |②-③-|
④口口口 |--④-|
②口⑤⑤ |--⑤-|
75
口口②口 |--①-|
①③口⑤ |②-③-|
④⑥③① |--④-|
口②口口 |⑤-⑥-|
76
口⑤⑤口 |①---|
⑤口①⑤ |②-③-|
口口③口 |--④-|
口②④口 |--⑤-|
77
①④④① |--①-|
④②②④ |--②-|
①③③① |--③-|
②③③② |--④-|
78
口③③口 |----|
③①①③ |----|
口口口口 |①-②-|
①②②① |--③-|
79
口③③口 |----|
③①①③ |----|
口口口口 |①-②-|
①②②① |--③-|
80
口③③口 |----|
③①①③ |----|
口口口口 |①-②-|
①②②① |--③-|
81
⑥口口⑦ |--①-|
口④⑤口 |②-③-|
②口③① |④-⑤-|
口口口口 |⑥-⑦-|
82
③①①口 |①---|
口口口④ |----|
口②②④ |②---|
口口口口 |③-④-|
83
口口口口 |①---|
口口口口 |----|
①②②口 |②---|
③①口③ |③---|
84
②⑤④① |①-②-|
⑥③④① |③-④-|
口口⑦口 |⑤-⑥-|
口口⑧口 |⑦-⑧-|
85
口⑥口⑥ |①---②-|
⑤口⑤口 |--③---|
③④口④ |④---⑤-|
①口口② |--⑥---|
86
①口①③ |①---|
口①③① |----|
②口口口 |----|
口②口口 |②-③-|
87
①口④口 |--①-|
口③⑥② |②-③-|
口①⑥④ |④---|
③⑤②口 |⑤-⑥-|
88
口③口口 |--①-|
②口口④ |②---|
②⑤口口 |③-④-|
口口⑥① |⑤-⑥-|
89
口口③③ |--①-|
口口①口 |②-③-|
②口①口 |----|
②口口口 |----|
90
口⑪⑤口 |①-②-③-|
⑥⑩④⑫ |④-⑤-⑥-|
⑨①⑦③ |⑦-⑧-⑨-|
口②⑧口 |⑩-⑪-⑫-|
91
口⑪⑤口 |①-②-③-|
⑥⑩④⑫ |④-⑤-⑥-|
⑨①⑦③ |⑦-⑧-⑨-|
口②⑧口 |⑩-⑪-⑫-|
92
③⑥口口 |--①-|
③⑥口口 |②-③-|
④①⑤② |--④-|
④①⑤② |⑤-⑥-|
93
口口口口 |--①-|
④口⑦① |②-③-|
口②口⑤ |④-⑤-|
⑥口口③ |⑥-⑦-|
94
口口④口 |①-②-|
口③口④ |③-④-|
①⑥②⑤ |----|
口①⑤口 |⑤-⑥-|
95
③②口③ |①-②-|
②口①口 |----|
口口口口 |③---|
④口口④ |④---|
96
口⑥⑥口 |①-②-|
④②①③ |③-④-|
③①②④ |--⑤-|
口⑤⑤口 |--⑥-|
97
②口口① |--①-|
口②①⑤ |②-③-|
⑥④③⑦ |④-⑤-|
④口⑦③ |⑥-⑦-|


不确定度: 0

最終更新:2012年11月06日 23:02