我が麗しのバレンシア
劇団レコード feat. Mille Face

BASIC

Level: 4
BPM: 130-150
Notes: 272

BPM: 130
1
口口口口 |----|
口口口口 |----|
口口口口 |----|
口口口口 |----|
2
口口口口 |①---|
口口口口 |----|
②口口口 |②---|
①口口口 |----|
3
口口口口 |①---|
口口口口 |----|
口口②口 |②---|
口口①口 |----|
4
口口口口 |①---|
口②口口 |----|
口①口口 |②---|
口口口口 |----|
5
口口口口 |①---|
口口口② |----|
口口口① |②---|
口口口口 |----|
6
口口口口 |①---|
口口口口 |----|
口口②口 |②---|
口①口口 |----|
7
口口口口 |①---|
口口口口 |----|
口①口口 |②---|
口口②口 |----|
8
口口口口 |①---|
口①②口 |----|
口③③口 |②---|
口口口口 |--③-|
9
口口口口 |----|
口口口口 |----|
口口口口 |----|
口口口口 |----|
10
口口口口 |①---|
口口口口 |----|
口口口口 |----|
口①①口

BPM: 150
口口口口
口口口口
口口口口
口口口口 |----|
11
口口口口 |①---|
口①①口 |----|
②口口③ |②---|
口口口口 |③---|
12
口口口口 |①---|
口①①口 |----|
口②②口 |②---|
口③口口 |③---|
13
口口口口 |①---|
②①①③ |----|
口口口口 |②---|
口口口口 |③---|
14
口口口口 |①---|
口口口口 |----|
口①①口
口口口口

口口口口
口口口口
口③口口 |②---|
口②②口 |③---|
15
口①口口 |①---|
②口①③ |----|
口口口口 |②---|
口口口口 |③---|
16
口口口口 |①---|
口①①口 |----|
口②②口 |②---|
口③口口 |③---|
17
口口口口 |①---|
②①①③ |----|
口口口口 |②---|
口口口口 |③---|
18
口口口口 |①---|
口①②口 |----|
口②①口 |②---|
口口口口 |----|
19
口口口口 |①---|
口②④口 |②---|
口口口口 |③---|
口①③口 |④---|
20
口口口口 |①---|
②口口④ |②---|
口口口口 |③---|
①口口③ |④---|
21
口口口口 |①---|
口②④口 |②---|
口口口口 |③---|
口①③口 |④---|
22
口口口口 |①---|
②口口④ |②---|
口口口口 |③---|
①口口③ |④---|
23
口口口口 |①---|
②口口④ |②---|
口①③口 |③---|
口口口口 |④---|
24
口口口口 |①---|
口口口口 |②---|
②口口④ |③---|
口①③口 |④---|
25
口口口口 |①---|
口②④口 |②---|
口口口口 |③---|
口①③口 |④---|
26
口口口口 |①---|
①口口② |②---|
口③③口 |③---|
口口口口 |----|
27
口口口口 |①---|
口口口口 |----|
口口口口
口①①口

口口口口
口口口口
口口口口 |----|
口②②口 |②---|
28
口口口口 |①-②-|
②口口② |----|
①口口① |----|
口口口口 |----|
29
口口口口 |①---|
口口口口 |----|
口口口口 |----|
②①①② |②---|
30
口口口口 |①-②-|
口②②口 |----|
口①①口 |----|
口口口口 |----|
31
口口口口 |①---|
口口口口 |----|
口①口口 |----|
②口①② |②---|
32
口③口口 |①-②-|
口②②口 |----|
口①①口 |----|
口口口口 |③---|
33
口口②口 |①---|
口①①口 |----|
口口口口 |----|
口口口口 |②---|
34
口口口口 |①---|
口口口口 |----|
口①①口 |----|
口口口口 |----|
35
②口口④ |①---|
口口口口 |②---|
①口口③ |③---|
口口口口 |④---|
36
口①口口 |①---|
口口②口 |②---|
口③口口 |③---|
口口④口 |④---|
37
②口口④ |①---|
口口口口 |②---|
①口口③ |③---|
口口口口 |④---|
38
口①口口 |①---|
口口②口 |②---|
口③口口 |③---|
口口④口 |④---|
39
②口口④ |①---|
①口口③ |②---|
口口口口 |③---|
口口口口 |④---|
40
口①口口 |①---|
口口②口 |②---|
口③口口 |③---|
口口④口 |④---|
41
②口口④ |①---|
口口口口 |②---|
①口口③ |③---|
口口口口 |④---|
42
口②③口 |①---|
口①④口 |②---|
口口口口 |③---|
口口口口 |④---|
43
④口口④ |①---|
③口口③ |②---|
②口口② |③---|
口①①口 |④---|
44
口口②口 |①---|
口④口口 |②---|
口①①口 |③---|
口③③口 |④---|
45
口口②口 |①---|
③口口③ |②---|
④①①④ |③---|
口口口口 |④---|
46
口口④口 |①---|
口②口口 |②---|
口③③口 |③---|
口①①口 |④---|
47
口口口口 |①---|
③②口③ |②---|
④口口④ |③---|
口①①口 |④---|
48
口口口口 |①---|
②口口口 |----|
口①口② |②---|
口口①口 |----|
49
口口口口 |①---|
口口②① |----|
①②口口 |②---|
口口口口 |----|
50
口③③口 |①---|
②口口② |--②-|
口口口口 |----|
①口口① |③---|
51
口口口口 |----|
口口口口 |----|
口口口口 |----|
口口口口 |----|
52
口口口口 |①---|
②口口④ |②---|
口口口口 |③---|
①口口③ |④---|
53
口①口口 |①---|
口口②口 |②---|
口③口口 |③---|
口口④口 |④---|
54
口口④口 |①---|
口③口口 |②---|
口口②口 |③---|
口①口口 |④---|
55
口口口口 |①---|
①口口口 |②---|
口口口② |③---|
③口口④ |④---|
56
口口口口 |①---|
②②④④ |②---|
口①③口 |③---|
口口口口 |④---|
57
口口口口 |①---|
口①口口 |②---|
口口②口 |③---|
口③口④ |④---|
58
口口口口 |①---|
②口口④ |②---|
口口口口 |③---|
①口口③ |④---|
59
口口口口 |①---|
③②②③ |②---|
④①①④ |③---|
口口口口 |④---|
60
口口口口 |①---|
②口口④ |②---|
口口口口 |③---|
①口口③ |④---|
61
口①口口 |①---|
口口②口 |②---|
口③口口 |③---|
口口④口 |④---|
62
口口④口 |①---|
口③口口 |②---|
口口②口 |③---|
口①口口 |④---|
63
口口口口 |①---|
①口口口 |②---|
口口口② |③---|
③口口④ |④---|
64
②②④④ |①---|
口口口口 |②---|
口①③口 |③---|
口口口口 |④---|
65
口口口口 |①---|
口①口口 |②---|
口口②口 |③---|
口③④口 |④---|
66
口口口口 |①---|
①口口① |②---|
口口口②
口口口口

口口口口
④④④④
口口口口 |③---|
③③③③ |--④-|
67
口口口口 |----|
口口口口 |----|
口①①口 |----|
口口口口 |--①-|


不确定度: 0

最終更新:2012年11月27日 22:22