Mother Ship
Sota Fujimori
ADVANCED
Level: 8
BPM: 152
Notes: 518
1
口口口口 |----|
口口口口 |----|
口口口口 |----|
口口口口 |----|
2
口①②口 |①②③④|
口③④口 |--⑤⑥|
⑤⑨⑨⑥ |⑦⑧--|
⑦⑩⑩⑧ |⑨-⑩-|
3
①口口① |①---|
口②②口 |②---|
口口口口
口口口口
④口口④
口口口口
口④④口 |③---|
③口口③ |④---|
4
口③③口 |①②-③|
口口口④ |--④-|
口口口口
口②①口
口口口口
⑤口⑧口
⑨⑦⑥口 |⑤-⑥⑦|
口口⑩口 |-⑧⑨⑩|
5
⑥①②口 |-①②-|
口⑤口⑦ |③④⑤-|
⑧口④口 |⑥-⑦-|
口③口⑨ |⑧-⑨-|
6
口口口⑦ |①-②-|
口口⑤⑥ |③-④-|
口③④口 |⑤--⑥|
①②口口 |--⑦-|
7
①②③口 |①---|
口口口口 |②---|
口⑤④口 |③---|
口⑦⑥口 |④⑤⑥⑦|
8
口③③口 |①②-③|
口②①口 |--④-|
口口口④
口口口口
口口口口
口口⑧口
⑤⑨口口 |⑤-⑥⑦|
口⑦⑥⑩ |-⑧⑨⑩|
9
口①②⑨ |-①②-|
⑧⑤口口 |③④⑤-|
口口④⑦ |⑥-⑦-|
③⑥口口 |⑧-⑨-|
10
⑧口口口 |①-②-|
⑦⑥⑤口 |③-④⑤|
口④③口 |⑥--⑦|
口口②① |--⑧-|
11
口口②① |①-②-|
口④③口 |③-④-|
口⑤⑥口 |⑤⑥-⑦|
⑦口口口 |----|
12
口③③口 |①②-③|
口口口④ |--④-|
口口口口
口②①口
口口口口
⑤口⑧口
⑨⑦⑥口 |⑤-⑥⑦|
口口⑩口 |-⑧⑨⑩|
13
⑥①②口 |-①②-|
口⑤口⑦ |③④⑤-|
⑧口④口 |⑥-⑦-|
口③口⑨ |⑧-⑨-|
14
口口④口 |①-②-|
口③口口 |③-④-|
口口②口
口①口口
⑤口口口
⑥口口⑦
口⑧⑨口 |⑤-⑥⑦|
口⑩⑪口 |⑧⑨⑩⑪|
15
口口④⑤ |①-②-|
口③②口 |③-④-|
⑦⑨⑧⑥ |⑤-⑥⑦|
①⑪⑩口 |⑧⑨⑩⑪|
16
口③③口 |①②-③|
口②①口 |--④-|
口口口④
口口口口
口口口口
口口⑧口
⑤⑨口口 |⑤-⑥⑦|
口⑦⑥⑩ |-⑧⑨⑩|
17
口①②⑨ |-①②-|
⑧⑤口口 |③④⑤-|
口口④⑦ |⑥-⑦-|
③⑥口口 |⑧-⑨-|
18
口口④口 |①-②-|
口③口口 |③-④-|
口口②口
①口口口
⑤口口口
⑥口口⑦
口⑧⑨口 |⑤-⑥⑦|
口⑩⑪口 |⑧⑨⑩⑪|
19
口口④⑤ |①-②-|
⑦③口⑥ |③-④-|
口⑨⑧② |⑤-⑥⑦|
①⑪⑩口 |⑧⑨⑩⑪|
20
口②④口 |①-②-|
⑤⑥⑦⑧ |③-④-|
口口口口 |⑤-⑥-|
①口口③ |⑦-⑧-|
21
口②④口 |①-②-|
口口口口 |③-④-|
⑧⑦⑥⑤ |⑤-⑥-|
③口口① |⑦-⑧-|
22
口口①口 |--①-|
口④⑦口 |②-③-|
口⑥⑤口 |④-⑤-|
口②③口 |⑥-⑦-|
23
①口口② |①-②-|
⑤口口⑧ |③-④-|
⑦口口⑥ |⑤-⑥-|
③口口④ |⑦-⑧-|
24
口②④口 |①-②-|
⑤⑥⑦⑧ |③-④-|
口口口口 |⑤-⑥-|
①口口③ |⑦-⑧-|
25
口②④口 |①-②-|
口口口口 |③-④-|
⑧⑦⑥⑤ |⑤-⑥-|
③口口① |⑦-⑧-|
26
口口①口 |--①-|
口④⑦口 |②-③-|
口⑥⑤口 |④-⑤-|
口②③口 |⑥-⑦-|
27
①口口② |①-②-|
⑤口口⑧ |③-④-|
⑦口口⑥ |⑤-⑥-|
③口口④ |⑦-⑧-|
28
口口口口 |①---|
口①①口 |----|
口①①口 |----|
口口口口 |----|
29
口口②② |①--②|
口③③口 |--③-|
口④④口 |④---|
①①口口 |----|
30
口口口口 |----|
口口口口 |----|
口口口口 |----|
口口口口 |----|
31
⑥口口⑤ |①-②-③-|
口口①口 |④⑤-⑥|
口②口口
口④③口
口口口口
口⑨⑩口
口⑦⑧口 |----|
口口口口 |⑦⑧⑨⑩|
32
口口口口 |----|
口口口口 |----|
口口口口 |----|
口口口口 |----|
33
口口口口 |----|
口口口口 |----|
口口口口 |----|
口口口口 |----|
34
口口口口 |----|
口口口口 |----|
口口口口 |----|
口口口口 |----|
35
口口口口 |①-②-③-|
⑩④①⑪ |④-⑤-⑥-|
⑧②⑤⑨ |⑦---|
口⑥③⑦ |⑧⑨⑩⑪|
36
②①①② |①--②|
口口口口 |----|
口口口口 |③--④|
③④④③ |----|
37
口口口口 |①--②|
口①①口 |----|
②口口② |----|
口口口口 |----|
38
②①①② |①--②|
口口口口 |----|
口口口口 |③--④|
③④④③ |----|
39
③①①③ |①--②|
口口口口 |--③-|
口②②口 |----|
口口口口 |----|
40
口⑥⑦口 |①②③④|
⑧①②⑨ |⑤-⑥⑦|
⑩③④⑪ |⑧⑨⑩⑪|
口⑤口口 |----|
41
口⑦口⑧ |①②③④|
⑨⑤⑥口 |-⑤⑥⑦|
口①②⑩ |⑧-⑨-|
口③④口 |⑩---|
42
口⑥⑦口 |①②③④|
⑧①②⑨ |⑤-⑥⑦|
⑩③④⑪ |⑧⑨⑩⑪|
口⑤口口 |----|
43
③口口③ |①--②|
口①①口 |--③-|
口口口口 |----|
口②②口 |----|
44
⑥②③⑦ |①---|
⑧④⑤口 |-②③④|
口口口口 |⑤---|
口①①口 |-⑥⑦⑧|
45
口口口口 |①---|
口口口① |----|
口口口口
口口口口
口口③口
③②②③
③②②③ |②---|
口③口口 |③---|
46
①口口① |①---|
③口口③ |②--③|
口口口口 |----|
②口口② |----|
47
口口口口 |----|
口①①口 |---①|
口①①口 |----|
口口口口 |----|
48
口口口口 |----|
口口口口 |---①|
①①口口 |----|
①①口口 |----|
49
口口①① |----|
口口①① |---①|
口口口口 |----|
口口口口 |----|
50
①①口口 |----|
①①口口 |---①|
口口口口 |----|
口口口口 |----|
51
口口口口 |----|
口口口口 |---①|
口口①① |----|
口口①① |----|
52
口口口口 |----|
口①①口 |---①|
口①①口 |----|
口口口口 |----|
53
口口口口 |----|
①口口① |----|
①口口① |①---|
口口口口 |----|
54
口口①口 |①-②-|
口②口⑨ |③-④⑤|
⑧④⑤③ |-⑥⑦-|
口⑦⑥口 |⑧-⑨-|
55
①口②① |①-②-|
口③④口 |③--④|
口口口口 |----|
口口口口 |----|
56
口口口① |①-②③|
⑥③②口 |-④⑤-|
口④⑤⑦ |⑥-⑦-|
口口⑧口 |--⑧-|
57
⑦口口⑦ |①-②③|
口⑤④口 |-④⑤-|
⑥②③⑥ |⑥---|
①口口口 |⑦---|
58
口口①口 |①-②-|
口②口⑨ |③-④⑤|
⑧④⑤③ |-⑥⑦-|
口⑦⑥口 |⑧-⑨-|
59
①口②① |①-②-|
口③④口 |③--④|
口口口口 |----|
口口口口 |----|
60
口口口① |①-②③|
⑥③②口 |-④⑤-|
⑧④⑤⑦ |⑥-⑦-|
口口口口 |--⑧-|
61
⑥口①⑥ |①-②-③-|
口②口口 |④---|
口口③口 |⑤---|
⑤④口⑤ |⑥---|
62
④口③② |①---|
口口⑤口 |---②|
口①①口 |---③|
口口口口 |-④-⑤|
63
⑧口口⑦ |--①②|
口口口口 |③④--|
①口口② |⑤⑥--|
③⑤⑥④ |⑦-⑧-|
64
口口口口 |①-②-|
①口③① |---③|
④②②口 |-④-⑤|
口口口⑤ |----|
65
口口口③ |①②-③|
口口口口 |④⑤⑥⑦|
④⑤⑥⑦
口①②口
⑫⑬⑭⑮
⑧⑨⑩⑪
口口口口 |⑧⑨⑩⑪|
口口口口 |⑫⑬⑭⑮|
66
口口口口 |①-②-|
口口口口 |----|
①口口口 |-③--|
②口口③ |----|
67
⑥⑦①① |①-②③|
口口口⑧ |④⑤-⑥|
⑨②③口 |-⑦--|
口④⑤口 |⑧-⑨-|
68
③口口③ |①-②-|
口口口口 |----|
口②口口 |③---|
口④④① |④---|
69
口口口口 |①---|
口①①口 |----|
口口口口
口口口口
口口口口
③④⑤⑥
口口口口 |②---|
口②②口 |③④⑤⑥|
70
①①②口 |①---|
口②口口 |----|
口②口口 |②---|
口②口口 |----|
不确定度: 0