風になりたい
THE BOOM

ADVANCED

Level: 3
BPM: 69-109
Notes: 272

BPM: 88
1
口口口口 |----|
口口口口 |----|
口口口口 |----|
口口口口 |----|

BPM: 94
2
口口口口 |----|
口口口口 |----|
口口口口
口口口口

BPM: 69.5
口口口口
口口口口
①口口口 |①---|
口口口口 |----|
3
口口口口 |----|
口口口口 |----|
口口口口
口口口口

BPM: 88
口口口口
口口口口
②口口口 |①---|
①口口口 |②---|
4
②口口口 |①---|
①口口口 |②---|
口口口口
口口口口

BPM: 103
口口口口
口口口口
口口口口 |----|
口口口口 |----|

BPM: 86
5
①口口① |①---|
口口口口 |----|
口口口口 |----|
口口口口 |----|

BPM: 90
6
口口口口 |①---|
口口口口 |----|
口口口口 |----|
①口口① |----|

BPM: 94
7
②口口① |①---|
口口④口 |②---|
③③口口 |③---|
①口口口 |④---|

BPM: 92
8
①口口口 |①---|
口口口口 |----|
口口口② |②---|
口口口① |----|

BPM: 90
9
口口口① |①---|
②口口② |----|
口口口口 |②---|
①口口口 |----|
10
②口口② |①---|
口口口口 |②---|
③口口③ |③---|
①口口① |----|

BPM: 107
11
口口口口 |①---|
②口口① |----|
①口口② |②---|
口口口口 |----|

BPM: 109
12
口口口口 |①---|
口口①① |----|
口口口口 |②---|
②②口口

BPM: 105
口口口口
口口口口
口口口口
口口口口 |----|

BPM: 106.5
13
口口口口 |①---|
口口口口 |----|
①①口口 |----|
口口口口 |----|

BPM: 106
14
①口口② |①---|
③口口④ |②---|
口口口口 |③---|
口口口口 |④---|
15
口口口口 |①---|
口口口口 |②---|
①口口② |③---|
③口口④ |④---|
16
②口口① |①---|
④口口③ |②---|
口口口口 |③---|
口口口口 |④---|
17
口口口口 |①---|
口口口口 |②---|
②口口① |③---|
④口口③ |④---|

BPM: 105
18
③口口① |①---|
口口口口 |②---|
口口口口 |③---|
②口口④ |④---|

BPM: 106
19
口③①口 |①---|
口口口口 |②---|
口口口口 |③---|
口②④口 |④---|
20
口口口口 |①---|
①口口④ |②---|
③口口② |③---|
口口口口 |④---|
21
③口口① |①---|
口口口口 |②---|
口口口口 |③---|
②口口④ |④---|
22
口④④口 |①---|
口①①口 |②---|
口③③口 |③---|
口②②口 |④---|
23
①口口① |①---|
口②②口 |②---|
③口口③ |③---|
口④④口 |④---|
24
口④④口 |①---|
③口口③ |②---|
口②②口 |③---|
①口口① |④---|
25
①口③口 |①---|
口②口④ |②---|
口②口④ |③---|
①口③口 |④---|
26
口③口① |①---|
④口②口 |②---|
④口②口 |③---|
口③口① |④---|
27
②口口① |①---|
④口口③ |②---|
③口口④ |③---|
①口口② |④---|
28
口④①口 |①---|
口③②口 |②---|
口②③口 |③---|
口①④口 |④---|
29
①口口① |①---|
③口口③ |②---|
②口口② |③---|
④口口④ |④---|
30
①②③④ |--①-②-|
口口口⑤ |③-④-⑤-|
口口口⑥ |⑥---|
口口口口 |----|
31
①①①① |①---|
②②②② |②---|
③③③③ |③---|
④④④④ |④---|
32
①①①① |①---|
③③③③ |②---|
②②②② |③---|
④④④④ |④---|
33
①①口口 |①---|
②②口口 |②---|
口口③③ |③---|
口口④④ |④---|
34
①②③④ |①---|
①②③④ |②---|
①②③④ |③---|
①②③④ |④---|
35
①口②③ |①---|
④口⑤⑥ |②-③-|
口口口口 |④---|
口口口口 |⑤-⑥-|
36
口口口口 |①---|
口口口口 |②-③-|
①口②③ |④---|
④口⑤⑥ |⑤-⑥-|
37
③②口① |①---|
⑥⑤口④ |②-③-|
口口口口 |④---|
口口口口 |⑤-⑥-|
38
口口口口 |①---|
口口口口 |②-③-|
③②口① |④---|
⑥⑤口④ |⑤-⑥-|
39
①口口① |①---|
口②②口 |②---|
③口口③ |③---|
口④④口 |④---|
40
口④④口 |①---|
③口口③ |②---|
口②②口 |③---|
①口口① |④---|
41
④口口④ |①---|
口③③口 |②---|
②口口② |③---|
口①①口 |④---|
42
③⑥口口 |①---|
②⑤口口 |②-③-|
口口口口 |④---|
①④口口 |⑤-⑥-|
43
口口③⑥ |①---|
口口②⑤ |②-③-|
口口口口 |④---|
口口①④ |⑤-⑥-|
44
④④④④ |①---|
口③③口 |②---|
②②②② |③---|
口①①口 |④---|
45
口口口口 |①---|
①口口① |----|
口口口口 |----|
①口口① |----|


不确定度: 0

最終更新:2012年11月27日 00:44