Good bye little girl
Mi

ADVANCED

Level: 3
BPM: 110
Notes: 185

1
口口口口 |----|
口口口口 |----|
口口口口 |----|
口口口口 |----|
2
口②口① |①---|
口口③口 |②---|
口口口口 |--③-|
口口口口 |----|
3
口口口口 |①---|
①口②口 |②---|
口③口口 |--③-|
口口口口 |----|
4
口口口口 |①---|
口口口口 |②---|
口②口① |--③-|
口④③口 |--④-|
5
口口③口 |--①-|
口②口口 |--②-|
口口①口 |--③-|
口口口口 |----|
6
①口②口 |①---|
口③口口 |②---|
口口口口 |--③-|
口口口口 |----|
7
口口口口 |①---|
口②口① |②---|
口口③口 |--③-|
口口口口 |----|
8
口口口口 |①---|
口口④口 |②---|
①口②口 |--③-|
口③口口 |--④-|
9
口口口② |----|
口①口口 |①---|
口口口口 |----|
口口口口 |--②-|
10
③口口口 |①---|
口①口口 |--②-|
口口②口 |----|
口口口口 |--③-|
11
口④③口 |①---|
口口①口 |--②-|
口②口口 |----|
口口口口 |③-④-|
12
口口口口 |①---|
②口口① |②---|
口④③口 |③---|
口口⑤口 |④-⑤-|
13
口口口口 |----|
口口口口 |----|
口口口口 |----|
口口口口 |----|
14
口口口口 |①---|
③口口口 |----|
①口口② |②---|
口口口口 |--③-|
15
④口①口 |--①-|
口②口口 |②-③-|
口口③口 |----|
口口口口 |--④-|
16
口口①口 |①---|
口②口③ |--②-|
④口口口 |③---|
口口口口 |--④-|
17
口口口⑤ |①---|
④口口口 |②---|
口口①③ |③-④-|
口②口口 |--⑤-|
18
③口口口 |①---|
口①口口 |--②-|
口口②口 |----|
口口口口 |--③-|
19
口④口口 |①---|
口口①③ |--②-|
口②口口 |----|
口口口口 |③-④-|
20
口口①口 |①---|
②口口口 |②---|
口口③口 |③---|
口④⑤口 |④-⑤-|
21
口口口口 |----|
③口口口 |--①-|
①口口② |②---|
口口口口 |③---|
22
②口③⑤ |①-②-|
口④口① |③-④-|
口口口口 |----|
口口口口 |--⑤-|
23
口口口口 |①---|
口①④口 |②---|
口⑤②口 |③---|
③口口口 |④-⑤-|
24
口②③口 |----|
口口口① |----|
口口口口 |--①-|
口口口口 |②-③-|
25
口口口④ |①---|
①⑤口口 |②-③-|
口③②口 |----|
口口口口 |④-⑤-|
26
②口口口 |①---|
口口③⑤ |②-③-|
④⑥口① |④---|
口口口口 |⑤-⑥-|
27
口口口口 |①---|
②口口口 |②-③-|
口口③口
口口口①

口口口口
口⑥⑦口
口口口口 |④-⑤-|
④口口⑤ |⑥-⑦-|
28
口①口口 |----|
口口口口 |----|
口口口口 |----|
口口口口 |--①-|
29
口⑥口口 |①---|
口口①⑤ |②-③-|
④②口口 |④---|
口口③口 |⑤-⑥-|
30
口口口口 |--①-|
口②①口 |②---|
口口口口 |----|
口口口口 |----|
31
口②口① |----|
口口口口 |----|
口口口口 |①---|
口口口口 |②---|
32
口口口口 |①---|
②口①口 |--②-|
口④③口 |③---|
口口口口 |④---|
33
口口口口 |①---|
口口口① |--②-|
②⑥口③ |③-④-|
口④⑤口 |⑤-⑥-|
34
口口口口 |①---|
②④①⑤ |②---|
口口③口 |③-④-|
口口口口 |--⑤-|
35
口①②口 |----|
口口口口 |----|
口口口口 |①---|
口口口口 |②---|
36
口口口口 |①---|
①③④② |②---|
口⑤口口 |③---|
口口口口 |④-⑤-|
37
口口⑤口 |①---|
④口③口 |----|
口②①口 |②-③-|
口口口口 |④-⑤-|
38
③①口② |①---|
口口④口 |②---|
口⑤口口 |③-④-|
口口口⑥ |⑤-⑥-|
39
口口口口 |----|
①口②口 |----|
口口口口 |①---|
口口口口 |②---|
40
口口口口 |①---|
口③口② |----|
口①④口 |②---|
口口口口 |③-④-|
41
口①②口 |----|
③口口④ |--①-|
⑤口口口 |②-③-|
口口口口 |④-⑤-|
42
口口口口 |①---|
口④③口 |②---|
口⑥⑤① |③-④-|
口②口口 |⑤-⑥-|
43
②口③口 |----|
口口口口 |--①-|
口口口口 |----|
口口①口 |②-③-|
44
口口口口 |①-②-|
口①②口 |③-④-|
口③④口
口口口口

口口口口
口口口口
口⑦口口 |⑤---|
口⑤口⑥ |⑥-⑦-|
45
②口口口 |①---|
口口①③ |②---|
④口口口 |③---|
口口口口 |④---|
46
口口口口 |①---|
口口③口 |----|
口②口口 |----|
口口口① |②-③-|
47
口口口口 |----|
口③口口 |----|
口口②口 |--①-|
口①口口 |②-③-|
48
口②①口 |①---|
口口口③ |②---|
④口口口 |③---|
口口口口 |④---|
49
口口口口 |①---|
口口口口 |----|
口口口口 |----|
口口①口 |----|


不确定度: 0

最終更新:2012年11月27日 00:36