endscape

BASIC

Level: 2
BPM: 177
Notes: 147

1
口口口口 |----|
口口口口 |----|
口口口口 |----|
口口口口 |----|
2
口口口口 |①---|
口①①口 |----|
口口口口 |----|
口口口口 |----|
3
②①①② |①---|
口口口口 |----|
口口口口 |②---|
口口口口 |----|
4
口口口口 |①---|
①口口① |----|
口口口口 |----|
口口口口 |----|
5
口口口口 |①---|
口口口口 |----|
口②②口 |②---|
口①①口 |----|
6
口口口口 |①---|
口①①口 |----|
口口口口 |----|
口口口口 |----|
7
口口口口 |①---|
口口口口 |----|
口口口口 |②---|
口①②口 |----|
8
口口口口 |①---|
口口口口 |----|
口①②口 |②---|
口口口口 |----|
9
口口口口 |①---|
口①②口 |----|
口口口口 |②---|
口口口口 |----|
10
①口口口 |①---|
口②口口 |----|
口口口口 |②---|
口口口口 |----|
11
口口口② |①---|
口口①口 |----|
口口口口 |②---|
口口口口 |----|
12
口口口口 |①---|
①口口口 |----|
口②口口 |②---|
口口口口 |----|
13
口口口口 |①---|
口口口② |----|
口口①口 |②---|
口口口口 |----|
14
口口口口 |①---|
口口口口 |----|
口②口口 |②---|
①口口口 |----|
15
口口口口 |①---|
口口口口 |----|
口口①口 |②---|
口口口② |----|
16
口口口口 |①---|
口②口口 |----|
①口口口 |②---|
口口口口 |----|
17
口口口口 |①---|
口口①口 |----|
口口口② |②---|
口口口口 |----|
18
口口口口 |①---|
口口口口 |----|
口②口口 |②---|
口①口口 |----|
19
口②口口 |①---|
口①口口 |----|
口口口口 |②---|
口口口口 |----|
20
口口口口 |①---|
口口口口 |----|
口口②口 |②---|
口口①口 |----|
21
口口②口 |①---|
口口①口 |----|
口口口口 |②---|
口口口口 |----|
22
①口口口 |①---|
口②口口 |----|
口口口口 |②---|
口口口口 |----|
23
口口口口 |①---|
口口口口 |----|
①口口口 |②---|
口②口口 |----|
24
口口口① |①---|
口口②口 |----|
口口口口 |②---|
口口口口 |----|
25
口口口口 |①---|
口口口口 |----|
口口口① |②---|
口口②口 |----|
26
口②口口 |①---|
口①口口 |----|
口口口口 |②---|
口口口口 |----|
27
口口②口 |①---|
口口①口 |----|
口口口口 |②---|
口口口口 |----|
28
②口口口 |①---|
①口口口 |----|
口口口口 |②---|
口口口口 |----|
29
口口口② |①---|
口口口① |----|
口口口口 |②---|
口口口口 |----|
30
口口口口 |①---|
口口口口 |----|
①口口口 |②---|
口②口口 |----|
31
口口口口 |①---|
口口口口 |----|
口口口② |②---|
口口①口 |----|
32
口口口口 |①---|
②口口② |--②-|
口①①口 |----|
口口口口 |----|
33
②口口② |①---|
口①①口 |----|
口口口口 |②---|
口口口口 |----|
34
口①①口 |①---|
口②②口 |--②-|
口③③口 |----|
口口口口 |③---|
35
口口口口 |----|
口口口口 |----|
口口口口 |----|
口口口口 |----|
36
①口口② |①---|
口口口口 |----|
口口口口 |②---|
口口口口 |----|
37
口①②口 |①---|
口口口口 |----|
口口口口 |②---|
口口口口 |----|
38
口口口口 |①---|
口①①口 |----|
口口口口 |----|
口口口口 |----|
39
口口口口 |①---|
口口口口 |----|
口①①口 |----|
口口口口 |----|
40
口口口口 |①---|
口口口口 |----|
口口口口 |----|
口①①口 |----|
41
口口口口 |①---|
口口口口 |----|
口①口口 |----|
口口口口 |----|
42
口口口口 |①---|
口口①口 |----|
口口口口 |----|
口口口口 |----|
43
口①口口 |①---|
口口口口 |----|
口口口口 |----|
口口口口 |----|
44
口口口口 |①---|
口①①口 |----|
口口口口 |----|
口口口口 |----|
45
②①①② |①---|
口口口口 |----|
口口口口 |②---|
口口口口 |----|
46
口口口口 |①---|
①口口① |----|
口口口口 |----|
口口口口 |----|
47
口口口口 |①---|
口口口口 |----|
口②②口 |②---|
口①①口 |----|
48
口口口口 |①---|
口①①口 |----|
口口口口 |----|
口口口口 |----|
49
口口口口 |①---|
口口口口 |----|
口口口口 |②---|
口①②口 |----|
50
口口口口 |①---|
口口口口 |----|
口①②口 |②---|
口口口口 |----|
51
口口口口 |①---|
口①②口 |----|
口口口口 |②---|
口口口口 |----|
52
口口口口 |①---|
口口口口 |----|
口②口口 |②---|
口①口口 |----|
53
口②口口 |①---|
口①口口 |----|
口口口口 |②---|
口口口口 |----|
54
口口口口 |①---|
口口口口 |----|
口口②口 |②---|
口口①口 |----|
55
口口②口 |①---|
口口①口 |----|
口口口口 |②---|
口口口口 |----|
56
①口口口 |①---|
口②口口 |----|
口口口口 |②---|
口口口口 |----|
57
口口口② |①---|
口口①口 |----|
口口口口 |②---|
口口口口 |----|
58
口口口口 |①---|
口口口口 |----|
口②口口 |②---|
①口口口 |----|
59
口口口口 |①---|
口口口口 |----|
口口①口 |②---|
口口口② |----|
60
口口口口 |①---|
口口口口 |----|
②口口口 |②---|
①口口口 |----|
61
②口口口 |①---|
①口口口 |----|
口口口口 |②---|
口口口口 |----|
62
口口口口 |①---|
口口口口 |----|
口口口② |②---|
口口口① |----|
63
口口口② |①---|
口口口① |----|
口口口口 |②---|
口口口口 |----|
64
口口①口 |①---|
口②口口 |----|
口口口口 |②---|
口口口口 |----|
65
口口口口 |①---|
口口口口 |----|
口口①口 |②---|
口②口口 |----|
66
口口口口 |①---|
口口口口 |----|
①口口① |----|
口口口口 |----|

BPM: 172
67
口口口口 |①---|
口②②口 |----|
口①①口 |②---|
口口口口 |----|
68
口①①口 |①---|
口口口口 |----|
口口口口 |----|
口口口口 |----|


不确定度: 0

最終更新:2012年11月27日 00:33