800nm
Another Infinity (Ryu☆×Starving Trancer)

ADVANCED

Level: 8
BPM: 180
Notes: 516

1
口口口口 |----|
口口口口 |----|
口口口口 |----|
口口口口 |----|
2
①口口② |①---|
口口口口 |②---|
①口口② |③---|
③口口④ |④---|
3
口⑦⑧口 |①-②-|
口⑤⑥口 |③-④-|
口③④口 |⑤-⑥-|
口①②口 |⑦-⑧-|
4
口口口① |①-②-|
②口口① |③---|
②口口③
口口口③

口口口口
口口⑥⑦
口口口口 |④-⑤-|
④⑤口口 |⑥-⑦-|
5
口①口口 |--①-|
①②口口 |--②-|
口口③口 |③-④-|
口④口口 |----|
6
口①①口 |①---|
⑥口口⑦ |②-③-|
④口口⑤ |④-⑤-|
②口口③ |⑥-⑦-|
7
口口口口 |①---|
⑥①①⑦ |②-③-|
口④⑤口 |④-⑤-|
口②③口 |⑥-⑦-|
8
①口口① |①---|
口⑥⑦口 |②-③-|
④口口⑤ |④-⑤-|
②口口③ |⑥-⑦-|
9
口①①口 |①---|
⑥口口⑦ |②-③-|
口④⑤口 |④-⑤-|
②口口③ |⑥-⑦-|
10
①①①口 |①---|
口⑥⑦口 |②-③-|
④口口⑤ |④-⑤-|
口②③口 |⑥-⑦-|
11
口①①① |①---|
口口口口 |②-③-|
口⑥⑦口 |④-⑤-|
②④⑤③ |⑥-⑦-|
12
①①①① |①---|
④⑥⑦⑤ |②-③-|
②口口③ |④-⑤-|
口口口口 |⑥-⑦-|
13
①①①① |①-②③|
口口口口 |-④⑤-|
②口口③ |----|
④口口⑤ |----|
14
⑤口⑥⑥ |①②-③|
③口④④ |④-⑤⑥|
①口②② |----|
口口口口 |----|
15
口②④口 |①---|
②口口④ |②---|
口口口口 |③---|
③口口① |④---|
16
口口口② |①-②-|
口口③口 |③-④-|
口④口① |⑤---|
⑤口⑥⑥ |⑥---|
17
口①③口 |①---|
①口口③ |②---|
④口口② |③---|
口口口口 |④---|
18
④③口① |①-②-|
⑤⑥②口 |③-④-|
口口⑦⑧ |⑤-⑥-|
口口口口 |⑦-⑧-|
19
口④口② |①---|
④口口口 |②---|
①口口口 |③---|
①口③③ |④---|
20
②口口口 |①-②-|
口③口口 |③-④-|
①口④口 |⑤---|
⑥⑥口⑤ |⑥---|
21
①口③口 |①---|
口②口④ |②---|
①口③口 |③---|
口口口口 |④---|
22
①口口② |①--②|
④④口⑤ |--③-|
③③⑥口 |④-⑤-|
②⑦口① |⑥-⑦-|
23
④④②② |①---|
口口口口 |②---|
口口口口 |③---|
①口口③ |④---|
24
口口口口 |①-②-|
口口③② |③-④-|
口④口⑥ |⑤---|
⑤口①⑥ |⑥---|
25
①口口③ |①---|
口口口口 |②---|
口④②口 |③---|
口④②口 |④---|
26
③⑤口④ |①-②-|
口口⑥② |③-④-|
①口口⑦ |⑤-⑥-|
口口⑧口 |⑦-⑧-|
27
口口②④ |①---|
口口④② |②---|
①③口口 |③---|
③①口口 |④---|
28
②口口口 |①-②-|
口③口口 |③-④-|
①口④口 |⑤---|
⑥⑥口⑤ |⑥---|
29
③①口口 |①---|
①③口口 |②---|
口口④② |③---|
口口②④ |④---|
30
⑤②①① |①--②|
④⑥③④ |--③-|
④③⑦④ |④-⑤-|
①①②口 |⑥-⑦-|
31
⑤⑤④④ |①---②-|
⑥口口③ |--③---|
⑥口口③ |④---⑤-|
①①②② |--⑥---|
32
口⑥⑥口 |①---②-|
⑤④④⑤ |--③---|
口③③口 |④---⑤-|
②①①② |--⑥---|
33
①口口① |①---|
口口口口 |----|
口口口口 |----|
口口口口 |----|
34
口口口口 |----|
口口①口 |----|
口②口口 |----|
口口口口 |--①-②-|
35
口口口口 |①---|
口口口口 |---②|
口口口口 |----|
②口①② |----|
36
口口口口 |--①-|
口①②口 |--②-|
③④⑤口 |③-④-|
口口口口 |⑤---|
37
⑤⑤④④ |①---②-|
⑥口口③ |--③---|
⑥口口③ |④---⑤-|
①①②② |--⑥---|
38
口口口口 |①---②-|
⑥④④⑥ |--③---|
⑤③③⑤ |④---⑤-|
①②②① |--⑥---|
39
①①①① |①---|
③口口③ |--②-|
口②②口 |----|
口口口口 |③---|
40
口口口口 |----|
口口口口 |----|
口②口口 |----|
口口①口 |①-②-|
41
②③③② |①---|
①口口① |--②-|
口口口口 |----|
口口口口 |③---|
42
口口口口 |----|
口口①口 |----|
口②口口 |----|
口口③口 |①-②-③-|
43
口口口口 |----|
口①口口 |----|
口口②口 |----|
口口口口 |--①-②-|
44
口口口口 |①---|
口口口口 |--②-|
口口口口 |----|
②①口② |----|
45
②口口① |①-②-|
④口口③ |③-④-|
⑥口口⑤ |⑤-⑥-|
⑧口口⑦ |⑦-⑧-|
46
口⑧⑦口 |①-②-|
口⑥⑤口 |③-④-|
口④③口 |⑤-⑥-|
口②①口 |⑦-⑧-|
47
口口口口 |①---|
口口口口 |----|
口口口① |----|
口口①口 |----|
48
口口⑦口 |①②-③|
口⑥⑤口 |④-⑤⑥|
④口口③ |⑦---|
②口口① |----|
49
口②④口 |①---|
②口口④ |②---|
③口口① |③---|
③口口① |④---|
50
②口口口 |①-②-|
口③口口 |③-④-|
口口④口 |⑤---|
⑥⑥①⑤ |⑥---|
51
①口口③ |①---|
①口口③ |②---|
④口口② |③---|
口④②口 |④---|
52
口口口口 |①-②-|
⑤⑥④口 |③-④-|
口③⑦⑧ |⑤-⑥-|
①口口② |⑦-⑧-|
53
④口口② |①---|
口④②口 |②---|
口口口口 |③---|
①①③③ |④---|
54
口口口② |①-②-|
口口③口 |③-④-|
口④口① |⑤---|
⑤口⑥⑥ |⑥---|
55
③③①① |①---|
口口口口 |②---|
②口口④ |③---|
口②④口 |④---|
56
④口口① |①--②|
口③②口 |--③-|
⑥②③⑤ |④-⑤-|
①⑦口④ |⑥-⑦-|
57
⑥口⑦⑦ |①-②-|
④口口③ |③-④-|
⑧口⑤口 |⑤-⑥-|
②口①口 |⑦-⑧-|
58
口口口口 |①-②-|
口口③② |③-④-|
口④口⑥ |⑤---|
⑤口⑥① |⑥---|
59
②口①⑤ |①-②-|
⑥口③③ |③-④-|
④口⑦⑦ |⑤-⑥-|
⑧口口口 |⑦-⑧-|
60
⑤④①口 |①-②-|
口⑥③口 |③-④-|
口②⑦口 |⑤-⑥-|
口口口⑧ |⑦-⑧-|
61
⑦⑦口④ |①-②-|
①口口⑥ |③-④-|
③③口② |⑤-⑥-|
⑤口口⑧ |⑦-⑧-|
62
口口口口 |①-②-|
③口口口 |③-④-|
②④口口 |⑤---|
⑥①⑤⑥ |⑥---|
63
口口口口 |①---|
③③①① |②---|
口口口口 |③---|
口②④口 |④---|
64
②口口① |①--②|
⑤口④④ |--③-|
口⑥③③ |④-⑤-|
①口⑦② |⑥-⑦-|
65
口口②④ |①---|
③口口口 |②---|
①口④② |③---|
③①口口 |④---|
66
①②口口 |①-②-|
⑥⑤④③ |③-④-|
①②口口 |⑤---|
⑥⑤④③ |⑥---|
67
①①③③ |①---|
口口口口 |②---|
口口口口 |③---|
④④②② |④---|
68
口口⑤⑤ |①-②-|
④③⑥① |③-④-|
④⑦②① |⑤-⑥-|
⑧⑧口口 |⑦-⑧-|
69
口口口口 |①---|
口口口口 |----|
口口口口 |----|
口口①① |----|
70
口口口口 |--①②|
口口①口 |③---|
口②口口 |----|
口口③口 |----|


不确定度: 0

最終更新:2012年11月06日 22:58