HOT LIMIT

BASIC

Level: 5
BPM: 139
Notes: 262

1
口口口口 |----|
口口口口 |----|
口口口口 |----|
口口口口 |----|
2
口口口口 |①---|
③口口④ |②---|
口①②口 |③---|
口口口口 |④---|
3
口口口口 |①-②-|
⑤⑥⑦⑧ |③-④-|
口口口口 |⑤-⑥-|
①②③④ |⑦-⑧-|
4
口口口口 |①---|
③口口④ |②---|
口①②口 |③---|
口口口口 |④---|
5
口口口口 |①-②-|
⑤⑥⑦⑧ |③-④-|
口口口口 |⑤-⑥-|
①②③④ |⑦-⑧-|
6
口口口口 |①---|
③口口④ |②---|
口①②口 |③---|
口口口口 |④---|
7
口口口口 |①-②-|
⑤⑥⑦⑧ |③-④-|
口口口口 |⑤-⑥-|
①②③④ |⑦-⑧-|
8
口口口口 |①---|
③口口④ |②---|
口①②口 |③---|
口口口口 |④---|
9
口口口口 |①-②-|
⑤⑥⑦⑧ |③-④-|
口口口口 |⑤-⑥-|
①②③④ |⑦-⑧-|
10
口①②口 |①---|
③口口④ |②---|
口口口口 |③---|
口口口口 |④---|
11
口口口口 |①---|
口口口口 |②---|
口①②口 |③---|
口③④口 |④---|
12
①②③④ |①-②-|
⑧⑦⑥⑤ |③-④-|
口口口口 |⑤-⑥-|
口口口口 |⑦-⑧-|
13
口口口口 |①-②-|
口口口口 |③-④-|
①②③④ |⑤---|
口口口⑤ |----|
14
口①②口 |①---|
③口口④ |②---|
口口口口 |③---|
口口口口 |④---|
15
口口口口 |①---|
口口口口 |②---|
口①②口 |③---|
口③④口 |④---|
16
①②③④ |①-②-|
⑧⑦⑥⑤ |③-④-|
口口口口 |⑤-⑥-|
口口口口 |⑦-⑧-|
17
口口口口 |①-②-|
口④④口 |③---|
①②③口 |④---|
口口口口 |----|
18
口口口口 |①---|
口口口口 |②---|
③口口② |③---|
①口口④ |④---|
19
口口口口 |①---|
口口口口 |②---|
口③②口 |③---|
口①④口 |④---|
20
③口口② |①---|
①口口④ |②---|
口口口口 |③---|
口口口口 |④---|
21
口③②口 |①---|
口①④口 |②---|
口口口口 |③---|
口口口口 |④---|
22
口口口口 |①---|
口③④口 |②---|
口①②口 |③---|
口口口口 |④---|
23
口口口口 |①---|
③口口④ |②---|
①口口② |③---|
口口口口 |④---|
24
①②③④ |①---|
口口口口 |②---|
口口口口 |③---|
口口口口 |④---|
25
口口口口 |①---|
口②②口 |----|
口①①口 |②---|
口口口口 |----|
26
口口口口 |①---|
口③④口 |②---|
口①②口 |③---|
口口口口 |④---|
27
口口口口 |①---|
③口口④ |②---|
①口口② |③---|
口口口口 |④---|
28
①②③④ |①---|
口口口口 |②---|
口口口口 |③---|
口口口口 |④---|
29
口口口口 |①---|
口②②口 |----|
口①①口 |②---|
口口口口 |----|
30
口口口口 |①---|
口口口口 |②---|
口口口口 |③---|
①②③④ |④---|
31
口口口口 |①---|
口口口口 |②---|
口③②① |③---|
口口口口 |----|
32
口口口口 |①---|
口①②口 |----|
口口口口 |②---|
口口口口 |----|
33
口③③口 |①---|
口②②口 |②---|
口①①口 |③---|
口口口口 |----|
34
口口口口 |①---|
口口口口 |②---|
口口口口 |③---|
①②③④ |④---|
35
口口口口 |①---|
口口口口 |②---|
口③②① |③---|
口口口口 |----|
36
口口口口 |①---|
口①②口 |----|
口口口口 |②---|
口口口口 |----|
37
口口口口 |①---|
口②②口 |----|
口①①口 |②---|
口口口口 |----|
38
②口口② |①---|
①口口① |----|
口口口口 |②---|
口口口口 |----|
39
口①②口 |①---|
③口口④ |②---|
口口口口 |③---|
口口口口 |④---|
40
口口口口 |①---|
口口口口 |②---|
口①②口 |③---|
口③④口 |④---|
41
①②③④ |①-②-|
⑧⑦⑥⑤ |③-④-|
口口口口 |⑤-⑥-|
口口口口 |⑦-⑧-|
42
口口口口 |①-②-|
口口口口 |③-④-|
①②③④ |⑤---|
口口口⑤ |----|
43
口①②口 |①---|
③口口④ |②---|
口口口口 |③---|
口口口口 |④---|
44
口口口口 |①---|
口口口口 |②---|
口①②口 |③---|
口③④口 |④---|
45
①②③④ |①-②-|
⑧⑦⑥⑤ |③-④-|
口口口口 |⑤-⑥-|
口口口口 |⑦-⑧-|
46
口口口口 |①-②-|
口④④口 |③---|
①②③口 |④---|
口口口口 |----|
47
口口口口 |①---|
口口口口 |②---|
③口口② |③---|
①口口④ |④---|
48
口口口口 |①---|
口口口口 |②---|
口③②口 |③---|
口①④口 |④---|
49
③口口② |①---|
①口口④ |②---|
口口口口 |③---|
口口口口 |④---|
50
口③②口 |①---|
口①④口 |②---|
口口口口 |③---|
口口口口 |④---|
51
口口口口 |①---|
③口口④ |②---|
口①②口 |③---|
口口口口 |④---|
52
口口口口 |①-②-|
⑤⑥⑦⑧ |③-④-|
口口口口 |⑤-⑥-|
①②③④ |⑦-⑧-|
53
口口口口 |①---|
③口口④ |②---|
口①②口 |③---|
口口口口 |④---|
54
口口口口 |①-②-|
⑤⑥⑦⑧ |③-④-|
口口口口 |⑤-⑥-|
①②③④ |⑦-⑧-|
55
口口口口 |①-②-|
⑤⑥⑦⑧ |③-④-|
①②③④ |⑤-⑥-|
口口口口 |⑦-⑧-|
56
口①①口 |①---|
口口口口 |----|
口口口口 |----|
口口口口 |----|


不确定度: 0

最終更新:2012年11月23日 02:14