鬼帝の剣
ALI PROJECT

EXTREME

Level: 8
BPM: 135
Notes: 583

1
口口口口 |----|
口口口口 |----|
口口口口 |----|
口口口口 |----|
2
口口口口 |①---|
口口口口 |----|
口口口口
①①①①

④口④④
③④③③
②③②② |--②-|
口②口口 |③-④-|
3
②③③② |①---|
②③③② |----|
②③③② |②---|
①口口① |③---|
4
口口②口 |①---|
②②③② |----|
③③口③ |----|
①①①① |②-③-|
5
口口口② |①---|
口口口口 |②-③-|
口口①口
①①③①

④④口口
口⑤⑨口
⑧口⑥⑩ |④-⑤⑥|
口⑦口口 |⑦⑧⑨⑩|
6
④口⑤① |①-②-|
⑧口口口 |③-④-|
口口口⑥ |⑤-⑥-|
③⑦口② |⑦-⑧-|
7
口④④口 |①-②-|
口③③① |③-④-|
⑥②②⑥ |⑤---|
口⑤⑤口 |⑥---|
8
①⑨口④ |①②③-|
①②⑧⑤ |④⑤⑥-|
⑦②③⑥ |⑦---|
⑦口③口 |⑧--⑨|
9
口口口口 |①-②-|
④口口④ |③-④-|
口②②口
③①①③

⑥⑦口⑥
口口口口
⑤口口⑤ |⑤-⑥-|
口口⑧口 |--⑦⑧|
10
口⑤②④ |①-②-|
口口⑧口 |--③④|
口⑦口口 |⑤-⑥-|
①③⑥口 |--⑦⑧|
11
口口③口 |①②③-|
口①口④ |④⑤⑥-|
口口②⑤
口口口⑥

口⑩⑩口
⑨口口口
⑧口口口 |⑦⑧⑨-|
⑦口口口 |⑩---|
12
⑤口⑧口 |①②③-|
④⑧⑦③ |④⑤⑥-|
口⑦⑥② |⑦-⑧-|
口⑥口① |----|
13
①⑥口口 |①②③-|
②⑦⑥口 |④⑤⑥-|
③⑧⑦④ |⑦-⑧-|
口口⑧⑤ |----|
14
⑥⑦⑧⑨ |①---|
⑤口②口 |②-③-|
④口③口 |④-⑤-⑥-|
口①口口 |⑦-⑧-⑨-|
15
口口口口 |①---|
口②③④ |②-③-|
口①口⑤ |④-⑤-⑥-|
⑨⑧⑦⑥ |⑦-⑧-⑨-|
16
口口口口 |①---|
口口口口 |----|
①口口口 |----|
口口口口 |----|
17
口口口口 |--①-|
②②②② |--②-|
①①①①
口口口口

④⑦口⑤
口口口口
⑧口⑥口 |③-④-|
③③③③ |⑤⑥⑦⑧|
18
口口⑥口 |①---|
口口④口 |②---|
口口⑤① |③-④-|
口②③② |⑤-⑥-|
19
口①口① |①---|
口口口口 |②---|
口口口口
②口②口

口⑥口口
口④口口
口⑤口口 |③-④-|
口③口口 |⑤-⑥-|
20
口口②② |①---|
口④⑤⑤ |②-③-|
③③⑥口 |④-⑤-|
口口①① |⑥---|
21
口①①口 |①-②-|
口口口口 |③-④-|
口口④④
③③口②

⑤口口口
口⑦⑦口
⑥⑥口口 |⑤-⑥-|
口口⑧⑧ |⑦-⑧-|
22
口⑤①① |①-②-|
④④口口 |③-④-|
口⑥⑥② |⑤-⑥-|
③③⑦口 |⑦---|
23
口口口口 |①---|
口①①口 |----|
口口口口
口口口口

口口口口
口②②口
口口口口 |----|
口口口口 |---②|
24
口②口口 |①---|
口口口② |②---|
②①①口
口口②口

口口③口
③口口口
口口④③ |----|
口③口口 |③--④|
25
⑥口口② |①-②-|
口①③② |--③-|
④③口口 |--④-|
④口口⑤ |⑤-⑥-|
26
口②①口 |----|
①口③② |①---|
②口口① |----|
口①②口 |②--③|
27
④口口⑤ |①-②-|
④③口口 |--③-|
口①③② |--④-|
⑥口口② |⑤-⑥-|
28
口⑤①口 |--①-|
⑤②⑥① |②-③-|
③⑥②口 |④---|
口③口④ |⑤-⑥-|
29
口口⑤口 |①-②-|
口④口口 |③-④-|
口口③① |--⑤-|
②口①口 |----|
30
②口⑥⑥ |①-②-|
④④口口 |--③-|
口口⑤⑤ |--④-|
③③口① |⑤-⑥-|
31
②口⑥口 |①-②-|
④④口⑤ |--③-|
口口口口 |--④-|
③③口① |⑤-⑥-|
32
①口口口 |----|
口①口口 |①---|
口口①口
口口口①

口口口②
口口②口
口②③口 |----|
②口口口 |②--③|
33
口口⑥口 |①-②-|
③①口② |--③-|
口口口⑤ |--④-|
口④口口 |⑤-⑥-|
34
④口口⑤ |①-②-|
⑥①①⑥ |--③-|
⑤②②④ |--④-|
③口口③ |⑤-⑥-|
35
④口口④ |①-②-|
⑤口③⑥ |③-④-|
⑦②口⑦ |--⑤-|
⑥口①⑤ |⑥-⑦-|
36
④①口③ |①---|
③②①④ |②---|
④①②③ |③---|
口②⑤口 |④--⑤|
37
口③③口 |①-②-|
口②②口 |③---|
口①口口 |----|
口口口口 |----|
38
口口②口 |①-②-③-|
①⑥口口 |④--⑤|
口口⑤③ |⑥---|
口④口口 |----|
39
口①口口 |①-②-③-|
④口⑥② |④--⑤|
口⑤口口 |⑥---|
口口③口 |----|
40
口⑥口④ |①-②-|
口②⑤口 |③-④-|
①⑧③口 |⑤-⑥-|
⑦口口口 |⑦-⑧-|
41
口⑤⑤口 |①-②-|
口④口② |③-④-|
口口③口 |⑤---|
口口①口 |----|
42
口口④口 |①-②-③-|
①⑤口口 |④--⑤|
口口⑥③ |⑥---|
口②口口 |----|
43
口①口口 |①-②-③-|
口⑤口② |④--⑤|
④口⑥口 |⑥---|
口口③口 |----|
44
③②①口 |--①-|
口③②① |②-③-|
口⑥⑤④ |④-⑤-|
⑥⑤④口 |⑥---|
45
③口口③ |--①-|
①口口① |②-③-|
②口口②
口口口口

口⑤⑤口
口口口口
⑦口口⑦ |④-⑤-|
④⑥⑥④ |⑥--⑦|
46
口口口口 |①---|
口①①口 |----|
口口口口 |----|
口口口口 |----|
47
口口口口 |----|
口口口口 |----|
口口口口 |----|
口口口口 |----|
48
①⑨口④ |①②③-|
①②⑧⑤ |④⑤⑥-|
口②③⑥ |⑦---|
⑦口③口 |⑧--⑨|
49
口口口口 |①-②-|
④口口④ |③-④-|
口②②口
③①①③

⑥⑦口⑥
口口口口
⑤口口⑤ |⑤-⑥-|
口口⑧口 |--⑦⑧|
50
口⑤②④ |①-②-|
口口⑧口 |--③④|
口⑦口口 |⑤-⑥-|
①③⑥口 |--⑦⑧|
51
口口③口 |①②③-|
口①口④ |④⑤⑥-|
口口②⑤
口口口⑥

口⑩⑩口
⑨口口口
⑧口口口 |⑦⑧⑨-|
⑦口口口 |⑩---|
52
⑤口⑧口 |①②③-|
④⑧⑦③ |④⑤⑥-|
口⑦⑥② |⑦-⑧-|
口⑥口① |----|
53
①⑥口口 |①②③-|
②⑦⑥口 |④⑤⑥-|
③⑧⑦④ |⑦-⑧-|
口口⑧⑤ |----|
54
⑥⑦⑧⑨ |①---|
⑤口②口 |②-③-|
④口③口 |④-⑤-⑥-|
口①口口 |⑦-⑧-⑨-|
55
口口口口 |①---|
口②③④ |②-③-|
口①口⑤ |④-⑤-⑥-|
⑨⑧⑦⑥ |⑦-⑧-⑨-|
56
口口口口 |①---|
口口口口 |----|
①口口口 |----|
口口口口 |----|
57
口口口口 |--①-|
②②②② |--②-|
①①①①
口口口口

④⑦口⑤
口口口口
⑧口⑥口 |③-④-|
③③③③ |⑤⑥⑦⑧|
58
口口⑥口 |①---|
口口④口 |②---|
口口⑤① |③-④-|
口②③② |⑤-⑥-|
59
口①口① |①---|
口口口口 |②---|
口口口口
②口②口

口⑥口口
口④口口
口⑤口口 |③-④-|
口③口口 |⑤-⑥-|
60
口口②② |①---|
口④⑤⑤ |②-③-|
③③⑥口 |④-⑤-|
口口①① |⑥---|
61
口①①口 |①-②-|
口口口口 |③-④-|
口口④④
③③口②

⑤口口口
口⑦⑦口
⑥⑥口口 |⑤-⑥-|
口口⑧⑧ |⑦-⑧-|
62
口⑤①① |①-②-|
④④口口 |③-④-|
口⑥⑥② |⑤-⑥-|
③③⑦口 |⑦---|
63
口口口口 |①---|
口①①口 |----|
口口口口 |----|
口口口口 |----|


不确定度: 0

最終更新:2012年11月23日 02:03