夢見る少女じゃいられない
相川七瀬

BASIC

Level: 2
BPM: 158
Notes: 175

1
口口口口 |----|
口口口口 |----|
口口口口 |----|
口口口口 |----|
2
口口口口 |①---|
口口口口 |----|
口口口口 |②---|
口口②① |----|
3
口口口口 |①---|
口口口口 |----|
口口口口 |②---|
②①口口 |----|
4
口口口口 |①---|
①②口口 |----|
口口口口 |②---|
口口口口 |----|
5
口口口口 |①---|
口口①② |----|
口口口口 |②---|
口口口口 |----|
6
口口②① |①---|
口口口口 |----|
口口口口 |②---|
口口口口 |----|
7
②①口口 |①---|
口口口口 |----|
口口口口 |②---|
口口口口 |----|
8
口口口口 |①---|
口口口口 |----|
①②口口 |②---|
口口口口 |----|
9
口口口口 |①---|
口口口口 |----|
口口①② |②---|
口口口口 |----|
10
口口口口 |----|
口口口口 |----|
口口口口 |----|
口口口口 |----|
11
口口口口 |----|
口口口口 |----|
口口口口 |----|
口口口口 |----|
12
口口口口 |①---|
口口口口 |----|
口口口① |②---|
口口②口 |----|
13
口口口口 |①---|
口口口口 |----|
②①口口 |②---|
口口口口 |----|
14
口口口口 |①---|
①口口口 |----|
口②口口 |②---|
口口口口 |----|
15
口口口口 |①---|
口口口口 |----|
口口①② |②---|
口口口口 |----|
16
口口口口 |①---|
口口②① |----|
口口口口 |②---|
口口口口 |----|
17
口口口口 |①---|
口①口口 |----|
口②口口 |②---|
口口口口 |----|
18
口口口口 |①---|
口口口口 |----|
口口口口 |②---|
口①②口 |----|
19
口口口口 |①---|
口口口口 |----|
口口口口 |----|
口口口① |----|
20
口口口口 |①---|
口口口口 |----|
①口口口 |②---|
口②口口 |----|
21
口口口口 |①---|
口口口口 |----|
口口①② |②---|
口口口口 |----|
22
口口口口 |①---|
口口口① |----|
口口②口 |②---|
口口口口 |----|
23
口口口口 |①---|
口口口口 |----|
②①口口 |②---|
口口口口 |----|
24
口口口口 |①---|
①②口口 |----|
口口口口 |②---|
口口口口 |----|
25
口口口口 |①---|
口口①口 |----|
口口②口 |②---|
口口口口 |----|
26
口口口口 |①---|
口口口口 |----|
口口口口 |②---|
口②①口 |----|
27
口口口口 |①---|
口口口口 |----|
口口口口 |②---|
①②②口 |----|
28
口口口口 |①---|
口①①口 |----|
口②②口 |②---|
口口口口 |----|
29
口口口口 |①---|
①②②① |----|
口口口口 |②---|
口口口口 |----|
30
口①①口 |①---|
口②②口 |----|
口口口口 |②---|
口口口口 |----|
31
口①口口 |----|
口口口口 |----|
口口口口 |①---|
口口口口 |----|
32
口口口口 |①---|
口口①口 |----|
口②口口 |②---|
口口口口 |----|
33
口口口口 |①---|
口口口口 |----|
口口口口 |②---|
口②①口 |----|
34
口口口口 |①---|
口口口口 |----|
口②①口 |②---|
口口口口 |----|
35
口①口口 |①---|
口口口口 |----|
口口口口 |②---|
口②②口 |----|
36
口口口口 |①---|
口①①口 |----|
口②②口 |②---|
口口口口 |----|
37
口口口口 |①---|
①②②① |----|
口口口口 |②---|
口口口口 |----|
38
口①①口 |①---|
口②②口 |----|
口口口口 |②---|
口口口口 |----|
39
口①口口 |----|
口口口口 |----|
口口口口 |①---|
口口口口 |----|
40
口口口口 |①---|
口口①口 |----|
口②口口 |②---|
口口口口 |----|
41
口口口口 |①---|
口口口口 |----|
口口口口 |②---|
口②①口 |----|
42
口口口口 |①---|
②③③② |--②-|
口①①口 |----|
口口口口 |③---|
43
口①①口 |①---|
口口口口 |----|
口口口口 |----|
口口口口 |----|
44
口口口口 |①---|
①口③口 |②---|
口②口④ |③---|
口口口口 |④---|
45
口口③口 |①---|
口口口① |②---|
口口②口 |③---|
口口口口 |----|
46
口口口口 |①---|
②①①② |②---|
口③口口 |③---|
口口④口 |④---|
47
口口口口 |①---|
口口口口 |②---|
口口②① |③---|
口③口口 |----|
48
口口口口 |①---|
④③②① |②---|
口口口口 |③---|
口口口口 |④---|
49
口③口口 |①---|
口口口口 |②---|
①②口口 |③---|
口口口口 |----|
50
口口口口 |①---|
②①①② |②---|
口③口口 |③---|
口口④口 |④---|
51
口口口口 |①---|
口口口口 |②---|
④口②① |③---|
口③口口 |④---|
52
口口口口 |①---|
口口④口 |②---|
口①②③ |③---|
口口口口 |④---|
53
口口口口 |①---|
②①口口 |②---|
③口口口 |③---|
口口口口 |----|
54
口口口口 |----|
口口口口 |①---|
口②口口 |②---|
①口③口 |③---|
55
口口口口 |①---|
口口口口 |----|
口口②① |----|
口口口口 |②---|
56
口口④口 |①---|
口③口口 |②---|
②①口口 |③---|
口口口口 |④---|
57
口口口口 |①---|
口口①口 |②---|
口口②口 |③---|
口口③口 |----|
58
口口口口 |①---|
口②②口 |----|
口①①口 |②---|
口口口口 |----|
59
口①①口 |①---|
口口口口 |----|
口②②口 |②---|
口口口口 |----|
60
口口口口 |①---|
口口口口 |----|
口口口口 |②---|
口口②① |----|
61
口口口口 |①---|
口口口口 |----|
口口口口 |②---|
②①口口 |----|
62
口口口口 |①---|
①②口口 |----|
口口口口 |②---|
口口口口 |----|
63
口口口口 |①---|
口口①② |----|
口口口口 |②---|
口口口口 |----|
64
口口②① |①---|
口口口口 |----|
口口口口 |②---|
口口口口 |----|
65
②①口口 |①---|
口口口口 |----|
口口口口 |②---|
口口口口 |----|
66
口口口口 |①---|
口口口口 |----|
①②口口 |②---|
口口口口 |----|
67
口口口口 |①---|
口口口口 |----|
口口①② |②---|
口口口口 |----|
68
口口口口 |----|
口口口口 |----|
口口口口 |----|
口口口口 |----|
69
口口口口 |----|
口口口口 |----|
口口口口 |----|
口口口口 |----|
70
口口口口 |①---|
口①①口 |----|
口①①口 |----|
口口口口 |----|


不确定度: 0

最終更新:2012年11月16日 18:52