理由なき反抗
おとぎ話

BASIC

Level: 4
BPM: 180-213
Notes: 358

全程BPM: 180-213飄忽不定
1
口口口口 |----|
口口口口 |----|
口口口口 |----|
口口口口 |----|
2
口口口口 |①---|
口①②口 |----|
口口口口 |②---|
口口口口 |----|
3
口口口口 |①---|
口口口口 |----|
口①②口 |②---|
口口口口 |----|
4
口口口口 |①---|
①口口口 |----|
口口口口 |②---|
②口口口 |----|
5
口口口口 |①---|
口口口① |----|
口口口口 |②---|
口口口② |----|
6
口口口口 |①---|
口①②口 |----|
口口口口 |②---|
口口口口 |----|
7
口口口口 |①---|
口口口口 |----|
口①②口 |②---|
口口口口 |----|
8
口口口口 |①---|
①口口口 |----|
口口口口 |②---|
②口口口 |----|
9
口口口口 |①---|
口口口① |----|
口口口口 |②---|
口口口② |----|
10
口①②口 |①---|
口口口口 |----|
口口口口 |②---|
口口口口 |----|
11
口口口口 |①---|
口口口① |----|
口口口② |②---|
口口口口 |----|
12
口②①口 |①---|
口口口口 |----|
口口口口 |②---|
口口口口 |----|
13
口口口口 |①---|
①口口口 |----|
②口口口 |②---|
口口口口 |----|
14
口口口口 |①---|
口口口口 |----|
口①②口 |②---|
口口口口 |----|
15
口口口口 |①---|
口口口口 |----|
口口口口 |②---|
口②①口 |----|
16
口②②口 |①---|
口①①口 |----|
口口口口 |②---|
口口口口 |----|
17
口口口口 |----|
口口口口 |----|
口口口口 |----|
口口口口 |----|
18
口口口口 |①---|
口①②口 |----|
口口口口 |②---|
口口口口 |----|
19
口口口口 |①---|
口口口口 |----|
口①②口 |②---|
口口口口 |----|
20
口口口口 |①---|
①口口口 |----|
口口口口 |②---|
②口口口 |----|
21
口口口口 |①---|
口口口① |----|
口口口口 |②---|
口口口② |----|
22
口口口口 |①---|
口①②口 |----|
口口口口 |②---|
口口口口 |----|
23
口口口口 |①---|
口口口口 |----|
口①②口 |②---|
口口口口 |----|
24
口口口口 |①---|
①口口口 |----|
口口口口 |②---|
②口口口 |----|
25
口口口口 |①---|
口口口① |----|
口口口口 |②---|
口口口② |----|
26
口①②口 |①---|
口口口口 |----|
口口口口 |②---|
口口口口 |----|
27
口口口口 |①---|
口口口① |----|
口口口② |②---|
口口口口 |----|
28
口②①口 |①---|
口口口口 |----|
口口口口 |②---|
口口口口 |----|
29
口口口口 |①---|
①口口口 |----|
②口口口 |②---|
口口口口 |----|
30
口口口口 |①---|
口口口口 |----|
口①②口 |②---|
口口口口 |----|
31
口口口口 |①---|
口口口口 |----|
口口口口 |②---|
口②①口 |----|
32
口②②口 |①---|
口①①口 |----|
口口口口 |②---|
口口口口 |----|
33
口口口口 |----|
口口口口 |----|
口口口口 |----|
口口口口 |----|
34
①①口口 |①---|
口口②② |②---|
③③口口 |③---|
口口④④ |④---|
35
口口口口 |①---|
③③口口 |②---|
口口②② |③---|
①①口口 |----|
36
①①口口 |①---|
口口②② |②---|
③③口口 |③---|
口口④④ |④---|
37
口口口口 |①---|
③③口口 |②---|
口口②② |③---|
①①口口 |----|
38
①①口口 |①---|
口口②② |②---|
③③口口 |③---|
口口④④ |④---|
39
口口④④ |①---|
③③口口 |②---|
口口②② |③---|
①①口口 |④---|
40
①①口口 |①---|
口口②② |②---|
③③口口 |③---|
口口④④ |④---|
41
口口口口 |①---|
口口口口 |----|
口口口口 |----|
①①口口 |----|
42
口①①口 |①---|
口②②口 |----|
口口口口 |②---|
口口口口 |----|
43
②口口口 |①---|
口口口口 |----|
口①①口 |----|
口口口口 |②---|
44
口口口③ |①---|
①口口④ |②---|
②口口口 |③---|
口口口口 |④---|
45
口口口口 |①---|
口口口口 |----|
口口口① |----|
口口口口 |----|
46
口口口口 |①---|
口①①口 |----|
口②②口 |②---|
口口口口 |----|
47
②口口口 |①---|
口口口口 |----|
口口口口 |----|
口①①口 |②---|
48
口口口③ |①---|
①口口④ |②---|
②口口口 |③---|
口口口口 |④---|
49
口口口口 |①---|
口口口口 |----|
口口口① |----|
口口口口 |----|
50
口口口口 |①---|
口①②口 |----|
口口口口 |②---|
口口口口 |----|
51
口口口口 |①---|
口口口口 |----|
口①②口 |②---|
口口口口 |----|
52
口口口口 |①---|
口①②口 |----|
口口口口 |②---|
口口口口 |----|
53
口口口口 |①---|
口口口口 |----|
口①②口 |②---|
口口口口 |----|
54
口口口口 |①---|
口①②口 |----|
口口口口 |②---|
口口口口 |----|
55
口口口口 |①---|
口口口口 |----|
口①②口 |②---|
口口口口 |----|
56
口口口口 |①---|
口①②口 |----|
口口口口 |②---|
口口口口 |----|
57
口口口口 |①---|
口口口口 |----|
口①②口 |②---|
口口口口 |----|
58
①②③④ |①---|
口口口口 |②---|
口口口口 |③---|
口口口口 |④---|
59
口口口口 |①---|
④③②① |②---|
口口口口 |③---|
口口口口 |④---|
60
口口口口 |①---|
口口口口 |②---|
①②③④ |③---|
口口口口 |④---|
61
口口口口 |①---|
口口口口 |②---|
口口口口 |③---|
④③②① |④---|
62
口口口口 |①---|
口口口口 |②---|
①②③④ |③---|
口口口口 |④---|
63
口口口口 |①---|
④③②① |②---|
口口口口 |③---|
口口口口 |④---|
64
口口口口 |①---|
口口口口 |②---|
①②③④ |③---|
口口口口 |④---|
65
口口口口 |①---|
口口口口 |②---|
口口口口 |③---|
④③②① |④---|
66
①口口① |①---|
②口口② |----|
口口口口 |②---|
口口口口 |----|
67
口口口口 |①---|
口口口口 |----|
①口口① |----|
口口口口 |----|
68
口口口口 |①---|
口①①口 |----|
口②②口 |②---|
口口口口 |----|
69
口口口口 |①---|
口口口口 |----|
口口口口 |----|
口①①口 |----|
70
①口口① |①---|
②口口② |----|
口口口口 |②---|
口口口口 |----|
71
口口口口 |①---|
口口口口 |----|
①口口① |----|
口口口口 |----|
72
口口口口 |①---|
口口口口 |----|
口②②口 |②---|
口①①口 |----|
73
口口口口 |①---|
口①①口 |----|
口口口口 |----|
口口口口 |----|
74
①①口口 |①---|
口口②② |②---|
③③口口 |③---|
口口④④ |④---|
75
口口④④ |①---|
③③口口 |②---|
口口②② |③---|
①①口口 |④---|
76
①①口口 |①---|
口口②② |②---|
③③口口 |③---|
口口④④ |④---|
77
口口口口 |①---|
③③口口 |②---|
口口②② |③---|
①①口口 |----|
78
①①口口 |①---|
口口②② |②---|
③③口口 |③---|
口口④④ |④---|
79
口口④④ |①---|
③③口口 |②---|
口口②② |③---|
①①口口 |④---|
80
①①口口 |①---|
口口②② |②---|
③③口口 |③---|
口口④④ |④---|
81
口口口口 |①---|
口口口口 |----|
口口口口 |----|
①①口口 |----|
82
①①口口 |①---|
口口②② |②---|
③③口口 |③---|
口口④④ |④---|
83
口口④④ |①---|
③③口口 |②---|
口口②② |③---|
①①口口 |④---|
84
①①口口 |①---|
口口②② |②---|
③③口口 |③---|
口口④④ |④---|
85
口口口口 |①---|
③③口口 |②---|
口口②② |③---|
①①口口 |----|
86
①①口口 |①---|
口口②② |②---|
③③口口 |③---|
口口④④ |④---|
87
口口④④ |①---|
③③口口 |②---|
口口②② |③---|
①①口口 |④---|
88
①①口口 |①---|
口口②② |②---|
③③口口 |③---|
口口④④ |④---|
89
口口口口 |①---|
口口口口 |----|
口口口口 |----|
①①口口 |----|
90
口①①口 |①---|
口②②口 |----|
口口口口 |②---|
口口口口 |----|
91
②口口口 |①---|
口口口口 |----|
口①①口 |----|
口口口口 |②---|
92
口口口③ |①---|
①口口④ |②---|
②口口口 |③---|
口口口口 |④---|
93
口口口口 |①---|
口口口口 |----|
口口口① |----|
口口口口 |----|
94
口口口口 |①---|
口①①口 |----|
口②②口 |②---|
口口口口 |----|
95
②口口口 |①---|
口口口口 |----|
口口口口 |----|
口①①口 |②---|
96
口口口③ |①---|
①口口④ |②---|
②口口口 |③---|
口口口口 |④---|
97
口口口口 |①---|
口口口口 |----|
口口口① |②---|
口②②口 |----|
98
口③③口 |①---|
口②②口 |----|
口①①口 |②---|
口口口口 |③---|


不确定度: 0

最終更新:2012年11月16日 18:46