紅空
lecca

BASIC

Level: 2
BPM: 143
Notes: 222

1
口口口口 |----|
口口口口 |----|
口口口口 |----|
口口口口 |----|
2
①口口口 |①---|
口口口口 |----|
口口口口 |----|
口口口口 |----|
3
口①口口 |①---|
口口口口 |----|
口口口口 |----|
口口口口 |----|
4
口口①口 |①---|
口口口口 |----|
口口口口 |----|
口口口口 |----|
5
口口口① |①---|
口口口口 |----|
口口口口 |----|
口口口口 |----|
6
口口口口 |①---|
口①口口 |----|
口口口口 |----|
口口口口 |----|
7
口口口口 |①---|
口口①口 |----|
口口口口 |----|
口口口口 |----|
8
口口口口 |①---|
口口口口 |----|
口①口口 |----|
口口口口 |----|
9
口口口口 |①---|
口口口口 |----|
口口①口 |----|
口口口口 |----|
10
口口口口 |①---|
口①口口 |----|
口口口口 |----|
口口口口 |----|
11
口口口口 |①---|
口口①口 |----|
口口口口 |----|
口口口口 |----|
12
口口口口 |①---|
口口口口 |----|
口①口口 |----|
口口口口 |----|
13
口口口口 |①---|
口口口口 |----|
口口①口 |----|
口口口口 |----|
14
口②③口 |①---|
①口口④ |②---|
口口口口 |③---|
口口口口 |④---|
15
口口口口 |①---|
口③②口 |②---|
④口口① |③---|
口口口口 |④---|
16
口②③口 |①---|
①口口④ |②---|
口口口口 |③---|
口口口口 |④---|
17
口口口口 |①---|
口③②口 |②---|
④口口① |③---|
口口口口 |④---|
18
口口口口 |①---|
口口口口 |②---|
口①②口 |③---|
口③④口 |④---|
19
②口口② |①---|
口①①口 |②---|
③口口口 |----|
口口口口 |③---|
20
口口口口 |①---|
口口口③ |--②-|
口①口② |----|
口口口口 |③---|
21
口口口口 |①---|
②口①口 |--②-|
口③④⑤ |--③-|
口口口口 |④-⑤-|
22
口①①口 |①---|
②口口② |----|
口口口口 |②---|
口口口口 |----|
23
口口口口 |①---|
口①①口 |----|
②口口② |②---|
口口口口 |----|
24
口口口口 |①---|
口口口口 |----|
口①①口 |②---|
②口口② |----|
25
口口口口 |①---|
口口口口 |----|
②口口② |②---|
口①①口 |----|
26
口①①口 |①---|
②口口② |----|
口口口口 |②---|
口口口口 |----|
27
口口口口 |①---|
口①①口 |----|
②口口② |②---|
口口口口 |----|
28
口口口口 |①---|
口口口口 |----|
口①①口 |②---|
②口口② |----|
29
口口口口 |①---|
口口口口 |----|
②口口② |②---|
口①①口 |----|
30
口口口口 |①---|
口①②口 |----|
口口口口 |②---|
口口口口 |----|
31
口口口口 |①---|
③口口④ |②---|
口①②口 |③---|
口口口口 |④---|
32
口口口口 |①---|
口①②口 |----|
口口口口 |②---|
口口口口 |----|
33
口口口口 |①---|
③口口④ |②---|
口①②口 |③---|
口口口口 |④---|
34
口①②口 |①---|
口口口口 |----|
口口口口 |②---|
口口口口 |----|
35
③口口④ |①---|
口①②口 |②---|
口口口口 |③---|
口口口口 |④---|
36
口①②口 |①---|
口口口口 |----|
口口口口 |②---|
口口口口 |----|
37
③口口④ |①---|
口①②口 |②---|
口口口口 |③---|
口口口口 |④---|
38
口口口口 |①---|
口口口口 |----|
口①②口 |②---|
口口口口 |----|
39
口口口口 |①---|
口口口口 |②---|
③口口④ |③---|
口①②口 |④---|
40
口口口口 |①---|
口口口口 |----|
口①②口 |②---|
口口口口 |----|
41
口口口口 |①---|
口口口口 |②---|
③口口④ |③---|
口①②口 |④---|
42
口口口口 |①---|
口①②口 |----|
口口口口 |②---|
口口口口 |----|
43
口口口口 |①---|
③口口④ |②---|
口①②口 |③---|
口口口口 |④---|
44
口口口口 |①---|
口①②口 |----|
口口口口 |②---|
口口口口 |----|
45
口口口口 |①---|
③口口④ |②---|
口①②口 |③---|
口口口口 |④---|
46
①①口口 |①---|
②②口口 |----|
口口口口 |②---|
口口口口 |----|
47
口口口口 |①---|
口口口口 |----|
口口①① |②---|
口口②② |----|
48
①①口口 |①---|
②②口口 |----|
口口口口 |②---|
口口口口 |----|
49
口口口口 |①---|
口口口口 |----|
口口①① |②---|
口口②② |----|
50
口口①① |①---|
口口②② |----|
口口口口 |②---|
口口口口 |----|
51
口口口口 |①---|
口口口口 |----|
①①口口 |②---|
②②口口 |----|
52
口口①① |①---|
口口②② |----|
口口口口 |②---|
口口口口 |----|
53
口口口口 |①---|
口口口口 |----|
①①口口 |②---|
②②口口 |----|
54
口②③口 |①---|
①口口④ |②---|
口口口口 |③---|
口口口口 |④---|
55
口口口口 |①---|
口③②口 |②---|
④口口① |③---|
口口口口 |④---|
56
口②③口 |①---|
①口口④ |②---|
口口口口 |③---|
口口口口 |④---|
57
口口口口 |①---|
口③②口 |②---|
④口口① |③---|
口口口口 |④---|
58
口口口口 |①---|
口口口口 |②---|
口①②口 |③---|
口③④口 |④---|
59
②口口② |①---|
口①①口 |②---|
③口口口 |----|
口口口口 |③---|
60
口口口口 |①---|
口口口③ |--②-|
口①口② |----|
口口口口 |③---|
61
口口口口 |①---|
②口①口 |--②-|
口③④⑤ |--③-|
口口口口 |④-⑤-|
62
口①①口 |①---|
②口口② |----|
口口口口 |②---|
口口口口 |----|
63
口口口口 |①---|
口①①口 |----|
②口口② |②---|
口口口口 |----|
64
口口口口 |①---|
口口口口 |----|
口①①口 |②---|
②口口② |----|
65
口口口口 |①---|
口口口口 |----|
②口口② |②---|
口①①口 |----|
66
口①①口 |①---|
②口口② |----|
口口口口 |②---|
口口口口 |----|
67
口口口口 |①---|
口①①口 |----|
②口口② |②---|
口口口口 |----|
68
口口口口 |①---|
口口口口 |----|
口①①口 |②---|
②口口② |----|
69
口口口口 |①---|
口口口口 |----|
②口口② |②---|
口①①口 |----|


不确定度: 0

最終更新:2012年11月16日 18:42