lovely my girl
シュクレット

EXTREME

Level: 8
BPM: 177
Notes: 555

1
口口口口 |----|
口口口口 |----|
口口口口 |----|
口口口口 |----|
2
口②口④ |----|
口口口口 |----|
①口③口 |①-②-|
口口口口 |③-④-|
3
口③④口 |①---|
①⑤口② |②---|
口口⑤① |③---|
②④③口 |④-⑤-|
4
⑥②④口 |--①-|
口口口① |--②-|
①⑤口③ |③-④-|
口口口② |⑤-⑥-|
5
口口口口 |①---|
①口口② |②---|
口口①口
②口口口

口③④口
口⑤口口
口口⑤口 |③---|
口④③口 |④-⑤-|
6
②③口口 |--①-|
口口①④ |--②-|
①⑤口口 |③-④-|
口口②⑥ |⑤-⑥-|
7
口口⑤③ |①---|
③②①口 |②---|
④⑤②口 |③---|
①口口④ |④-⑤-|
8
⑥①口口 |--①-|
口口⑤① |--②-|
④口口② |③-④-|
口②③口 |⑤-⑥-|
9
口①②口 |①---|
③⑤④① |②---|
口②口口 |③---|
④口③⑤ |④-⑤-|
10
口④口③ |--①-|
②口口① |--②-|
①④口② |③---|
口③口口 |④---|
11
⑤⑬④⑫ |①②③④|
⑥⑭③⑪ |⑤⑥⑦⑧|
⑦⑮②⑩ |⑨⑩⑪⑫|
⑧⑯①⑨ |⑬⑭⑮⑯|
12
口口口口 |①---|
口口口口 |②---|
口口①口 |----|
②③①口 |③---|
13
口口②口 |①---|
②①③① |②-③-|
③口④⑥ |--④-|
②⑤⑥④ |⑤-⑥-|
14
口口口口 |----|
口口口② |①---|
口②口口 |----|
①②口口 |②---|
15
口口①口 |①---|
①②③口 |②-③-|
⑥⑦口④ |--④-|
②⑤口口 |⑤-⑥⑦|
16
口口③③ |①---|
口口口口 |②---|
口口①口 |③---|
②④口口 |④---|
17
口口口口 |①---|
④口①① |②-③-|
口④②② |----|
②④③③ |④---|
18
口口①口 |①---|
口②③① |②-③-|
口④⑤③ |--④-|
②⑤口⑥ |⑤-⑥-|
19
口②⑥④ |--①-|
口口口⑤ |②-③-|
①⑦⑧口 |④-⑤-|
②⑥③口 |⑥-⑦⑧|
20
③口口口 |①---|
口口口口 |②---|
口口口① |----|
口口③② |③---|
21
口②口口 |①---|
①③①② |②-③-|
④⑥口③ |--④-|
⑥④⑤② |⑤-⑥-|
22
口口口口 |----|
②口口口 |①---|
口口②口 |----|
口口②① |②---|
23
口①口口 |①---|
口③②① |②-③-|
④口⑦⑥ |--④-|
口口⑤② |⑤-⑥⑦|
24
③③口口 |①---|
口口口口 |②---|
口①口口 |③---|
口口④② |④---|
25
口口口口 |①---|
①①口④ |②-③-|
②②④口 |----|
③③④② |④---|
26
口①⑥口 |①---|
①③②口 |②-③-|
③⑤④口 |--④-|
口口⑤② |⑤-⑥-|
27
口①口⑤ |①-②-|
口③④⑥ |③-④-|
口⑨⑧口 |⑤-⑥-|
②口⑦③ |⑦-⑧⑨|
28
③口口③ |①---|
口口口口 |②---|
①口口口 |③---|
②④口口 |④---|
29
口口口口 |①---|
①口口① |②---|
③口口③ |③---|
②④口口 |④---|
30
口①①口 |①---|
③③②② |②---|
⑤⑤④④ |③-④-|
②⑤⑥⑥ |⑤-⑥-|
31
口口口口 |----|
口口口口 |①---|
口③④口 |----|
①②口口 |②-③④|
32
③③口口 |①---|
口口口口 |②---|
口口口① |③---|
口口④② |④---|
33
口口口口 |①---|
①①口口 |②---|
③③口口 |③---|
口口④② |④---|
34
①②①② |①---|
③口④口 |②---|
④口③口 |③-④-|
口口⑤口 |--⑤-|
35
⑫④⑬⑤ |①②③④|
⑪③⑭⑥ |⑤⑥⑦⑧|
⑩②⑮⑦ |⑨⑩⑪⑫|
⑨①⑯⑧ |⑬⑭⑮⑯|
36
口①口② |----|
口③③口 |--①-|
口口口口 |②---|
口口口口 |③---|
37
口口口口 |①-②-|
口口口口 |③-④-|
①口口④ |----|
⑤②③⑤ |⑤---|
38
④口②④ |①---|
①②口① |②---|
③口口口 |③---|
⑤口③⑤ |④-⑤-|
39
口①口口 |--①-|
口口②口 |②-③-|
⑤③口④ |④---|
口⑤④口 |⑤---|
40
①口①口 |----|
②②②口 |①---|
口③口口 |②---|
口口口口 |③---|
41
口口口口 |①-②-|
口口口口 |③-④-|
①口口④ |----|
⑤②③⑤ |⑤---|
42
④口②④ |①---|
①②口① |②---|
③口口口 |③---|
⑤口③⑤ |④-⑤-|
43
口①口口 |--①-|
口口②口 |②-③-|
⑤③口④ |④---|
口⑤④口 |⑤---|
44
②①口口 |----|
①②②① |①---|
口口①② |②---|
③口口③ |③---|
45
口口口口 |①-②-|
口口口口 |③-④-|
①口口④ |----|
⑤②③⑤ |⑤---|
46
④口②④ |①---|
①②口① |②---|
③口口口 |③---|
⑤口③⑤ |④-⑤-|
47
口①口口 |--①-|
口口②口 |②-③-|
⑤③口④ |④---|
口⑤④口 |⑤---|
48
口①口② |----|
口③③口 |①---|
口口口口 |②---|
口口口口 |③---|
49
口口口口 |①-②-|
口口口口 |③-④-|
①口口④ |----|
⑤②③⑤ |⑤---|
50
④口②④ |①---|
①②口① |②---|
③口口口 |③---|
⑤口③⑤ |④-⑤-|
51
口①⑤口 |--①-|
口⑤②口 |②-③-|
口③口④ |④---|
口口④口 |⑤---|
52
①口口① |①---|
①口口① |----|
口口口口
口口口口

口③口⑤
口口口口
②口④口 |②-③-|
口口口口 |④-⑤-|
53
口③④口 |①---|
①⑤口② |②---|
口口⑤① |③---|
②④③口 |④-⑤-|
54
⑥②④口 |--①-|
口口口① |--②-|
①⑤口③ |③-④-|
口口口② |⑤-⑥-|
55
口口口口 |①---|
①口口② |②---|
口口①口
②口口口

口③④口
口⑤口口
口口⑤口 |③---|
口④③口 |④-⑤-|
56
②③口口 |--①-|
口口①④ |--②-|
口⑤口② |③-④-|
①口口⑥ |⑤-⑥-|
57
口口⑤③ |①---|
③②①口 |②---|
④⑤②口 |③---|
①口口④ |④-⑤-|
58
⑥①口口 |--①-|
口口⑤① |--②-|
④口口② |③-④-|
口②③口 |⑤-⑥-|
59
口①②口 |①---|
③⑤④① |②---|
口②口口 |③---|
④口③⑤ |④-⑤-|
60
口④②⑥ |--①-|
口口口① |--②-|
③②⑤口 |③-④-|
口①口口 |⑤-⑥-|
61
口③④口 |①---|
①⑤口② |②---|
口口⑤① |③---|
②④③口 |④-⑤-|
62
⑥②④口 |--①-|
口口口① |--②-|
①⑤口③ |③-④-|
口口口② |⑤-⑥-|
63
口口口口 |①---|
①口口② |②---|
口口①口
②口口口

口③④口
口⑤口口
口口⑤口 |③---|
口④③口 |④-⑤-|
64
②③口口 |--①-|
口口①④ |--②-|
①⑤口口 |③-④-|
口口②⑥ |⑤-⑥-|
65
口口⑤③ |①---|
③②①口 |②---|
④⑤②口 |③---|
①口口④ |④-⑤-|
66
⑥①口口 |--①-|
口口⑤① |--②-|
④口口② |③-④-|
口②③口 |⑤-⑥-|
67
口①②口 |①---|
③⑤④① |②---|
口②口口 |③---|
④口③⑤ |④-⑤-|
68
口④口③ |--①-|
②⑤⑤① |--②-|
①④口② |③---|
口③口口 |④-⑤-|


不确定度: 0

最終更新:2013年03月23日 17:20