Kick It Out
ブンブンサテライツ

EXTREME

Level: 10
BPM: 143
Notes: 865

1
口口口口 |----|
口口口口 |----|
口口口口 |----|
口口口口 |----|
2
③⑥⑤口 |①-②-|
④⑤⑥① |③---|
①④口② |④-⑤-|
②口口③ |--⑥-|
3
口口③口 |①-②-|
口③口① |--③-|
②③①口 |----|
口②口口 |----|
4
口口口③ |①-②-|
①口口口 |③---|
②口口①
③口口②

④口口口
⑥④口⑤
⑦⑥⑤⑦ |④-⑤-|
口口口口 |⑥-⑦-|
5
口④口口 |--①-|
口口口口 |--②-|
口③口口 |--③-|
口⑤②① |④-⑤-|
6
③口口口 |①-②-|
口口口① |③---|
①口口②
②口口③

口④口⑥
④⑤口⑥
口口⑤口 |④-⑤-|
口口口口 |--⑥-|
7
口③③口 |①-②-|
③口③口 |--③-|
③①③② |----|
①口②口 |----|
8
口口口口 |①-②-|
③口口① |③---|
口①口②
口②口③

⑤口口口
口口⑥口
⑥⑦⑤口 |④-⑤-|
④⑧④口 |⑥-⑦⑧|
9
⑤口口口 |①②-③|
②口口口 |④-⑤⑥|
口口⑥①
③口④口

口口口口
⑩⑦⑫口
口⑨口口 |⑦⑧⑨-|
口⑪口⑧ |⑩⑪⑫-|
10
口①②口 |①-②-|
口③口④ |③-④-|
口口口口
②口④口

口口口口
⑥口⑦口
⑤⑥口口 |⑤-⑥-|
⑦⑤口口 |--⑦-|
11
口②③① |--①-|
④⑥⑤口 |②-③-|
②③①口 |--④-|
口④⑥⑤ |⑤-⑥-|
12
口①④口 |①-②-|
口口口口 |③-④-|
口③②④
③口口口

口⑦口⑥
⑦口⑥口
⑤口口口 |⑤-⑥-|
口⑤口口 |--⑦-|
13
④⑥⑤口 |--①-|
口②③① |②-③-|
口④⑥⑤ |--④-|
②③①口 |⑤-⑥-|
14
口口口口 |①-②-|
口③口④ |③-④-|
口口口口
①口④②

口口口口
⑥口⑦口
⑤⑥口口 |⑤-⑥-|
⑦⑤口口 |--⑦-|
15
口②③① |--①-|
④⑥⑤口 |②-③-|
②③①口 |--④-|
口④⑥⑤ |⑤-⑥-|
16
②④③① |①-②-|
口⑥⑦⑤ |③-④-|
口②④③ |--⑤-|
⑥⑦⑤口 |⑥-⑦-|
17
口②③① |--①-|
④⑥⑤口 |②-③-|
②③①口 |--④-|
口④⑥⑤ |⑤-⑥-|
18
①口口① |①-②-|
口口口口 |③-④-|
②③④② |⑤-⑥-|
⑧⑦⑥⑤ |⑦-⑧-|
19
③口口口 |①-②-|
②口口④ |③-④-|
①⑦⑧⑤ |⑤-⑥-|
口⑨⑩⑥ |⑦⑧⑨⑩|
20
⑥口口⑥ |①②③-|
①②③⑤ |④-⑤-|
④⑥⑥口 |--⑥-|
口口口口 |----|
21
口口口口 |①-②-|
①口口② |③-④-|
③口④④
③①①②

⑦⑤口⑥
口⑦⑥口
口⑤口口 |⑤-⑥-|
口口⑧⑧ |⑦-⑧-|
22
口口④④ |①-②-|
③口口② |③-④-|
①口②口
①③口口

⑦口口口
口⑤⑥口
⑦⑤口⑥ |⑤-⑥-|
口口⑨⑧ |⑦-⑧⑨|
23
口③④④ |①-②-|
③口口② |③-④-|
口口②口
①①口口

⑤口口口
口口⑥口
口⑤⑧⑧ |⑤-⑥-|
⑦⑦⑥口 |⑦-⑧-|
24
⑭⑩①⑦ |--①②|
④⑧⑤口 |③④⑤⑥|
⑥②⑬⑫ |⑦⑧⑨⑩|
⑪口⑨③ |⑪⑫⑬⑭|
25
口口①口 |①-②-|
①④③④ |③-④-|
口③口口
口②口②

口⑤⑧口
⑧口口口
⑤口⑦⑥ |⑤-⑥-|
⑦口⑥口 |⑦-⑧-|
26
③④口① |①-②-|
口口口③ |③-④-|
口①口④
口②口②

口口口⑦
⑧⑥⑤口
⑤⑦⑨口 |⑤-⑥-|
口口⑥口 |⑦-⑧⑨|
27
③③口口 |①-②-|
口口口口 |③---|
口口口②
①①口②

口口口口
⑤口④④
⑤口⑥⑥ |④-⑤-|
口口口口 |-⑥--|
28
口口口② |①--②|
③口口② |--③-|
口①口口
③①口口

口⑤④口
口口④口
口⑤口口 |-④--|
口口口口 |⑤---|
29
口⑥口⑥ |①②③-|
口①⑥④ |④-⑤-|
④⑥②⑦ |--⑥-|
⑤③⑦⑤ |--⑦-|
30
③口口口 |①-②-|
口①④② |③-④-|
③口②口
口①口④

口⑤⑥⑥
口⑦口口
口⑤⑨⑧ |⑤-⑥-|
口⑦口口 |⑦-⑧⑨|
31
口口④④ |①-②-|
①⑤口② |③-④-|
③③口⑥ |⑤-⑥-|
①⑤⑥② |----|
32
口①②口 |①---|
①②①② |----|
①②①② |②---|
口口口口 |----|
33
③③口口 |①-②-|
①口②口 |③-④-|
口口②④
口①④口

口口口⑧
口⑦口⑥
⑤⑤⑧口 |⑤-⑥-|
口⑦口⑥ |⑦-⑧-|
34
③口②口 |①-②-|
①口②④ |③-④-|
口③口④
①口口口

口口口⑥
⑦口口口
⑤口⑥口 |⑤-⑥-|
⑦⑤⑨⑧ |⑦-⑧⑨|
35
口口④口 |①-②-|
口①②② |③-④-|
③①④口
口③口口

⑤⑤口⑥
⑦口口口
口⑦口⑥ |⑤-⑥-|
口口⑧⑧ |⑦-⑧-|
36
口口口④ |①-②-|
口③口② |③-④-|
①口②④
①③口口

⑤⑪⑥口
⑨口⑧口
口⑦⑩口 |⑤⑥⑦⑧|
口口⑫口 |⑨⑩⑪⑫|
37
③⑥⑤口 |①-②-|
④⑤⑥① |③---|
①④口② |④-⑤-|
②口口③ |--⑥-|
38
口口③口 |①-②-|
口③口① |--③-|
②③①口
口②口口

④口口口
口口⑤口
口口⑥口 |④-⑤-|
口⑦口口 |⑥-⑦-|
39
口口口③ |①-②-|
①口口口 |③---|
②口口①
③口口②

④口口口
⑥④口⑤
⑦⑥⑤⑦ |④-⑤-|
口口口口 |⑥-⑦-|
40
口④口口 |--①-|
口口口口 |--②-|
口③口口 |--③-|
口⑤②① |④-⑤-|
41
③口口口 |①-②-|
口口口① |③---|
①口口②
②口口③

口④口⑥
④⑤口⑥
口口⑤口 |④-⑤-|
口口口口 |--⑥-|
42
口③③口 |①-②-|
③口③口 |--③-|
③①③②
①口②口

④口口⑤
口⑦口口
口口口口 |④-⑤-|
⑥口口口 |⑥-⑦-|
43
口口口口 |①-②-|
③口口① |③---|
口①口②
口②口③

⑤口口口
口口⑥口
⑥口⑤⑦ |④-⑤-|
④⑦④口 |⑥-⑦-|
44
口①①口 |①---|
口③③口 |②---|
口④④口 |③---|
②口口② |④---|
45
③①②口 |①-②-|
⑥③⑦④ |③-④-|
⑤⑥口口 |⑤-⑥-|
⑦⑤④口 |--⑦-|
46
口②③① |--①-|
④⑥⑤口 |②-③-|
②③①口 |--④-|
口④⑥⑤ |⑤-⑥-|
47
口①④口 |①-②-|
口口口口 |③-④-|
口③②④
③口口口

口⑦口⑥
⑦口⑥口
⑤口口口 |⑤-⑥-|
口⑤口口 |--⑦-|
48
④⑥⑤口 |--①-|
口②③① |②-③-|
口④⑥⑤ |--④-|
②③①口 |⑤-⑥-|
49
口口口③ |①-②-|
口③口④ |③-④-|
口口口口
②口④①

口口口口
⑥口⑦口
⑤⑥口口 |⑤-⑥-|
⑦⑤口口 |--⑦-|
50
口②③① |--①-|
④⑥⑤口 |②-③-|
②③①口 |--④-|
口④⑥⑤ |⑤-⑥-|
51
①③②口 |--①-|
口⑤⑥④ |②-③-|
口①③② |--④-|
⑤⑥④口 |⑤-⑥-|
52
④②③① |--①-|
口④④口 |②-③-|
②③①④ |--④-|
口口口口 |----|
53
口口口口 |①-②-|
①口口② |③-④-|
③口④④
③①①②

⑦⑤口⑥
口⑦⑥口
口⑤口口 |⑤-⑥-|
口口⑧⑧ |⑦-⑧-|
54
口口④④ |①-②-|
③口口② |③-④-|
①口②口
①③口口

⑦口口口
口⑤⑥口
⑦⑤口⑥ |⑤-⑥-|
口口⑨⑧ |⑦-⑧⑨|
55
口③④④ |①-②-|
③口口② |③-④-|
口口②口
①①口口

⑤口口口
口口⑥口
口⑤⑧⑧ |⑤-⑥-|
⑦⑦⑥口 |⑦-⑧-|
56
⑭⑩①⑦ |--①②|
④⑧⑤口 |③④⑤⑥|
⑥②⑬⑫ |⑦⑧⑨⑩|
⑪口⑨③ |⑪⑫⑬⑭|
57
口口①口 |①-②-|
①④③④ |③-④-|
口③口口
口②口②

口⑤⑧口
⑧口口口
⑤口⑦⑥ |⑤-⑥-|
⑦口⑥口 |⑦-⑧-|
58
③④口① |①-②-|
口口口③ |③-④-|
口①口④
口②口②

口口口⑦
口⑥⑤口
⑤⑦⑧口 |⑤-⑥-|
⑨口⑥口 |⑦-⑧⑨|
59
口⑤⑦⑥ |①-②-|
②④③① |③-④-|
⑤⑦⑥口 |--⑤-|
口②④③ |⑥-⑦-|
60
口口口口 |--①-|
口口口① |--②-|
②口口①
口②口口

⑩⑥口③
口④口口
口口⑨⑧ |③④⑤⑥|
⑦口⑤口 |⑦⑧⑨⑩|
61
口口①口 |①-②-|
①④③④ |③-④-|
口③口口
口②口②

口⑤⑧口
⑧口口口
⑤口⑦⑥ |⑤-⑥-|
⑦口⑥口 |⑦-⑧-|
62
③④口① |①-②-|
口口口③ |③-④-|
口①口④
口②口②

口口口⑦
口⑥⑤口
⑤⑦⑧口 |⑤-⑥-|
⑨口⑥口 |⑦-⑧⑨|
63
口⑤⑦⑥ |①-②-|
②④③① |③-④-|
⑤⑦⑥口 |--⑤-|
口②④③ |⑥-⑦-|
64
口③口口 |--①-|
口口③① |-②--|
③口口① |--③-|
②②口③ |----|
65
口口口口 |①-②-|
口①口② |③-④-|
口③②口
③①④④

⑤口⑥⑧
⑦⑦⑥口
⑤口口⑧ |⑤-⑥-|
口口口口 |⑦-⑧-|
66
③③口口 |①-②-|
口口④② |③-④-|
口①②口
①口口④

口口⑨⑧
⑦⑤口口
⑤⑦口⑥ |⑤-⑥-|
口口⑥口 |⑦-⑧⑨|
67
口②口口 |①-②③|
口⑥⑤口 |④⑤⑥⑦|
④口③口
①①⑦口

⑫口⑬口
⑩口口⑨
口⑧⑮⑪ |⑧⑨⑩⑪|
口⑭口口 |⑫⑬⑭⑮|
68
口口口口 |①②③④|
口③④口 |⑤⑥⑦⑧|
⑦⑤口⑧
①口⑥②

口⑬⑭⑫
⑨⑮口口
口口⑪口 |⑨⑩⑪⑫|
口⑩口⑯ |⑬⑭⑮⑯|
69
口口口口 |①---|
口口口口 |----|
口口口口 |----|
①口口口 |----|


不确定度: 0

最終更新:2013年03月23日 15:36