元気でやってるのかい?
イルリメ

ADVANCED

Level: 8
BPM: 165
Notes: 678

1
口口口口 |----|
口口口口 |----|
口口口口 |----|
口①口口 |①---|
2
口口①口 |①-②-|
口⑦⑥口 |--③-|
②口⑤④ |④-⑤-|
①口口③ |⑥-⑦-|
3
②①口口 |①-②-|
口⑥⑦口 |③-④-|
④⑤口口 |⑤---|
③口口口 |⑥-⑦-|
4
②口口② |①-②-|
口⑥⑦口 |--③-|
④⑤口口 |④-⑤-|
③①①口 |⑥-⑦-|
5
口④①② |①-②-|
口口④⑤ |--③-|
③③⑤⑤ |--④-|
口口②② |⑤---|
6
口④口口 |①-②-|
③⑤口口 |③-④-|
口②口口 |⑤---|
①⑤口口 |----|
7
口口④口 |①-②-|
口口⑤③ |③-④-|
口口②口 |⑤---|
口口⑤① |----|
8
口口口口 |①-②-|
⑦⑧⑤口 |③-④-|
⑥③④口 |⑤-⑥-|
①②口口 |⑦-⑧-|
9
②口口① |--①-|
③口口③ |--②-|
口①②口 |--③-|
①③③② |----|
10
口口口口 |①-②-|
口④⑤口 |③-④-|
②③口口 |⑤---|
①口口口 |----|
11
口口口口 |①-②-|
口⑤④口 |③-④-|
口口③② |⑤---|
口口口① |----|
12
⑤⑦⑧⑥ |①-②-|
③口口④ |③-④-|
①口口② |⑤-⑥-|
口口口口 |⑦-⑧-|
13
口④口口 |①-②-|
口①④③ |--③-|
②口③④ |--④-|
口②口口 |----|
14
①口口② |①-②-|
③⑤⑥④ |③-④-|
口口口口 |⑤-⑥-|
⑦口口⑦ |⑦---|
15
口口③口 |--①-|
②③口口 |--②-|
③②口① |--③-|
口口①口 |----|
16
口⑥⑦⑦ |①-②-|
⑤⑤④⑧ |③-④-|
口②③③ |⑤-⑥-|
①①口口 |⑦-⑧-|
17
⑤⑥⑥⑤ |①-②-|
⑥④④⑥ |③-④-|
①③③① |⑤---|
②①①② |⑥---|
18
口口口口 |①-②-|
口④④口 |③-④-|
①③③①
②①①②

⑤口口⑤
口口口口
⑥口口⑥ |⑤---|
口⑥⑥口 |⑥---|
19
口①②口 |①-②-|
③④口口 |③-④-|
口口⑤⑥ |⑤-⑥-|
口⑦⑧口 |⑦-⑧-|
20
①③口① |--①-|
③①③口 |--②-|
口②口口 |--③-|
②口口② |----|
21
口⑤口① |①-②-|
口口口② |③-④-|
⑥口③⑥ |⑤---|
⑥口④⑥ |⑥---|
22
⑤口①口 |①-②-|
口⑥②口 |③-④-|
口③⑥口 |⑤---|
口④⑥口 |⑥---|
23
⑥⑤④口 |①-②-|
口⑥③⑥ |③-④-|
②口⑥口 |⑤---|
①口口口 |⑥---|
24
口⑤④⑥ |①-②-|
口⑥③口 |③-④-|
②⑥⑥口 |⑤---|
①口口口 |⑥---|
25
①口②口 |①-②-|
③口④口 |③-④-|
⑤口⑥口 |⑤-⑥-|
⑦口⑧口 |⑦-⑧-|
26
口②口① |①-②-|
口④口③ |③-④-|
口⑥口⑤ |⑤-⑥-|
⑦⑦口口 |⑦---|
27
②①④③ |①---|
①口口④ |②---|
③口口② |③---|
④③②① |④---|
28
口口口口 |①-②-|
口口口口 |③-④-|
⑥④②⑦ |--⑤-|
口⑤③① |⑥-⑦-|
29
口口口口 |①-②-|
⑤③①口 |③-④-|
口④②口 |⑤---|
口口口口 |----|
30
①③⑤口 |①-②-|
⑦②④⑥ |③-④-|
口⑧口口 |⑤-⑥-|
口口口口 |⑦-⑧-|
31
⑦口口口 |①-②-|
口①③口 |③-④-|
口口②④ |⑤---|
⑤⑥⑤⑥ |⑥-⑦-|
32
口③口口 |①-②-|
口①④口 |③-④-|
口口②口
口口口口

口口⑥口
口⑦口口
口口口⑤ |⑤---|
口口口口 |⑥-⑦-|
33
口口口② |①-②-|
⑤口③⑤ |③-④-|
①④口口 |⑤---|
口口口口 |----|
34
②口口① |①---|
口口口口 |----|
口口口② |②---|
①①口② |----|
35
⑦④②① |①-②-|
口⑧⑤③ |③-④-|
口口口⑥ |⑤-⑥-|
口口口口 |⑦-⑧-|
36
口口口口 |①-②-|
③口口口 |③-④-|
⑥④①口 |⑤-⑥-|
口⑦⑤② |⑦---|
37
①③⑥口 |①-②-|
②⑤口口 |③-④-|
④⑧口口 |⑤-⑥-|
⑦口口口 |⑦-⑧-|
38
口口口② |①-②-|
口口①⑤ |③-④-|
口口④口 |⑤---|
口③⑥⑥ |⑥---|
39
①口口② |①---|
①①②② |--②-|
③口口口 |----|
③③口口 |③---|
40
口③③口 |①---|
口口口口 |--②-|
口②②① |③---|
口口①① |----|
41
口③口口 |①---|
③②①口 |--②-|
①口口② |----|
口①②口 |③---|
42
②口①② |①---|
口口口① |--②-|
③口口③ |③---|
④口口④ |④---|
43
口①①口 |①---|
①口口① |--②-|
②口口② |----|
③口口③ |③---|
44
③口口③ |①---|
①②②① |--②-|
口③③口 |③---|
口①①口 |----|
45
口①①口 |①---|
①口口① |--②-|
③②③② |----|
②③②③ |③---|
46
①①①① |①-②-|
口⑧③② |③-④-|
⑤④口口 |⑤-⑥-|
口口⑦⑥ |⑦-⑧-|
47
⑦口口口 |①-②-|
①⑥⑧口 |③-④-|
口口③② |⑤-⑥-|
⑤④口口 |⑦-⑧-|
48
口①③口 |①-②-|
⑤⑦口② |③-④-|
口④⑥⑧ |⑤-⑥-|
口口口口 |⑦-⑧-|
49
⑦⑧口口 |①-②-|
⑥⑤①口 |③-④-|
③④口口 |⑤-⑥-|
②口口口 |⑦-⑧-|
50
口⑥口口 |①-②-|
⑥⑤④口 |③-④-|
口口③② |⑤---|
口口口① |⑥---|
51
⑥口口口 |①-②-|
口⑥口口 |③-④-|
口口口⑤ |⑤---|
①②③④ |⑥---|
52
口口口① |①-②-|
口口③② |③-④-|
口⑤④⑥ |⑤---|
口口⑥口 |⑥---|
53
①④①④ |①---|
④①④① |②---|
②③②③ |③---|
③②③② |④---|
54
④口口口 |①-②-|
⑤③口口 |③-④-|
口口②口 |⑤---|
口⑥⑥① |⑥---|
55
口口口④ |①-②-|
口口③⑤ |③-④-|
口②口口 |⑤---|
①口⑥⑥ |⑥---|
56
口⑥口口 |①-②-|
⑥口④⑤ |③-④-|
口②③口 |⑤---|
口①口口 |⑥---|
57
口口口口 |①---|
口口口口 |②---|
口①①①
②②②口

③口口口
口④口口
口口⑤口 |③-④-|
口口口⑥ |⑤-⑥-|
58
口口口① |①-②-|
口口②⑥ |③-④-|
⑤③口⑥ |⑤---|
④口口口 |⑥---|
59
①口口口 |①-②-|
⑥②口口 |③-④-|
⑥口③⑤ |⑤---|
口口口④ |⑥---|
60
⑤④④⑤ |①-②-|
口③③口 |③-④-|
口②②口 |⑤---|
⑥①①⑥ |⑥---|
61
口⑤口⑥ |①-②-|
⑤①②③ |③-④-|
①②③④ |⑤---|
⑥口④口 |⑥---|
62
口⑥口口 |①-②-|
口⑤④口 |③-④-|
口口③② |⑤-⑥-|
口口口① |----|
63
①口口口 |①-②-|
②③口口 |③-④-|
口④⑤口 |⑤-⑥⑦|
口口⑦⑥ |----|
64
口口口口 |--①-|
①⑤⑤① |②-③-|
②口口② |-④--|
③④④③ |⑤---|
65
③口口口 |--①-|
②口⑥口 |②-③-|
①口⑤口 |--④-|
口口④口 |⑤-⑥-|
66
口口口③ |--①-|
口⑥口② |②-③-|
口⑤口① |--④-|
口④口口 |⑤-⑥-|
67
口①①口 |--①-|
②口口② |②---|
③口口③ |③-④-|
④⑤⑤④ |⑤---|
68
口④④② |①---|
①①①② |②---|
口④④② |③---|
③③③口 |④---|
69
①口口② |①---|
①①②② |--②-|
③口口口 |----|
③③口口 |③---|
70
口③③口 |①---|
口口口口 |--②-|
口②②① |③---|
口口①① |----|
71
口③口口 |①---|
③②①口 |--②-|
①口口② |----|
口①②口 |③---|
72
②口①② |①---|
口口口① |--②-|
③口口③ |③---|
④口口④ |④---|
73
口①①口 |①---|
①②②① |--②-|
②③③② |----|
③口口③ |③---|
74
③口口③ |①---|
口口口口 |--②-|
②③③② |③---|
口①①口 |----|
75
口①①口 |①---|
①口口① |--②-|
③②③② |----|
②③②③ |③---|
76
①①①① |①-②-|
口⑧③② |③-④-|
⑤④口口 |⑤-⑥-|
口口⑦⑥ |⑦-⑧-|
77
口口⑦⑥ |①-②-|
①⑧口口 |③-④-|
口口③② |⑤-⑥-|
⑤④口口 |⑦-⑧-|
78
口口口口 |①-②-|
①口③② |③-④-|
⑤④⑦⑥ |⑤-⑥-|
口⑧口口 |⑦-⑧-|
79
口②口② |①---|
①口口口 |②---|
口②口口
①口①口

口口口口
④③④③
口口口口 |③---|
④口④③ |④---|
80
口①口① |①---|
口口口口 |----|
口①口① |----|
口口口口 |----|


不确定度: 0

最終更新:2013年03月23日 15:34