元気でやってるのかい?
イルリメ
EXTREME
Level: 9
BPM: 165
Notes: 855
1
口口口口 |----|
口口口口 |----|
口口口口 |----|
①口口口 |①---|
2
口口口口 |①-②-|
口①口② |--③-|
①口②口
口口口③
口口口口
口口口口
⑦口口口 |④-⑤-|
⑥⑤④口 |⑥-⑦-|
3
③④⑤⑥ |①-②-|
②口①口 |③-④-|
口②口① |⑤---|
⑦口口口 |⑥-⑦-|
4
③口口口 |①-②-|
口①口② |--③-|
口口口口
口②口①
口口口④
口口口口
口口口口 |④-⑤-|
⑤口口⑥ |⑥---|
5
②口口② |--①-|
③②②③ |--②-|
④口口④ |--③④|
⑤①①⑤ |⑤---|
6
③⑧⑧④ |①②③④|
⑨⑦⑦⑨ |⑤⑥⑦⑧|
口①②口 |⑨---|
口⑤⑥口 |----|
7
口口口口 |①②③④|
⑥⑧⑦⑤ |⑤⑥⑦⑧|
④⑨⑨③ |⑨---|
②口口① |----|
8
①②③④ |①②③④|
口口口⑤ |⑤⑥⑦⑧|
口口口⑥
口口⑧⑦
⑬⑭口⑯
⑫口⑮口
⑪口口口 |⑨⑩⑪⑫|
⑩⑨口口 |⑬⑭⑮⑯|
9
口③①口 |--①-|
口①③口 |--②-|
口口口口 |--③-|
②口口② |----|
10
口口⑥口 |①②③④|
口④⑨⑤ |⑤⑥⑦⑧|
②⑧③⑨ |⑨---|
口①⑦口 |----|
11
口⑨⑥口 |①②③④|
⑧④⑨⑤ |⑤⑥⑦⑧|
②⑦③口 |⑨---|
口①口口 |----|
12
口口口口 |①②③④|
④③口口 |⑤⑥--|
口口⑥⑤
口②①口
口⑭⑬⑩
口口⑨口
口⑧口口 |⑦⑧⑨⑩|
⑦⑫⑪口 |⑪⑫⑬⑭|
13
口口③③ |--①-|
②②口③ |--②-|
②口①① |--③-|
口口口① |----|
14
⑪⑨⑨⑪ |①②③④|
⑩⑧⑦⑩ |⑤⑥⑦⑧|
④⑥⑤③ |⑨-⑩-|
②口口① |⑪---|
15
③③口口 |--①-|
③口②② |--②-|
①①口② |--③-|
①口口口 |----|
16
口口口④ |①-②-|
口③③口 |③-④-|
口②②口
①口口①
⑤⑦⑦口
口口口口
口⑧⑧口 |⑤-⑥-|
口⑥⑥口 |⑦-⑧-|
17
⑩⑨⑨⑩ |①②③④|
⑥⑩⑩⑤ |⑤⑥⑦⑧|
④口口③ |⑨---|
②⑧⑦① |⑩---|
18
⑩⑩⑩⑩ |①②③④|
⑥⑨⑨⑤ |⑤⑥⑦⑧|
④口口③ |⑨---|
②⑧⑦① |⑩---|
19
⑬⑭⑨⑩ |①②③④|
⑮⑯⑪⑫ |⑤⑥⑦⑧|
①②⑤⑥ |⑨⑩⑪⑫|
③④⑦⑧ |⑬⑭⑮⑯|
20
③③③③ |--①-|
口口口口 |--②-|
②②①① |--③-|
口②①口 |----|
21
口⑨⑨口 |①②③④|
⑨⑩⑩⑨ |⑤⑥⑦⑧|
⑧⑦④③ |⑨---|
⑥⑤②① |⑩---|
22
⑧⑩⑩⑦ |①②③④|
⑥⑩⑩⑤ |⑤⑥⑦⑧|
④⑨⑨③ |⑨---|
②口口① |⑩---|
23
⑧口口⑦ |①②③④|
⑥⑩⑩⑤ |⑤⑥⑦⑧|
④⑨⑨③ |⑨---|
②⑩⑩① |⑩---|
24
⑩⑧⑦⑩ |①②③④|
⑥⑩⑩⑤ |⑤⑥⑦⑧|
④⑨⑨③ |⑨---|
②口口① |⑩---|
25
口⑦⑦口 |①②③④|
②口口① |⑤⑥-⑦|
④口口③
⑥口口⑤
⑪口口⑫
⑬⑧⑧⑭
⑮⑨⑨口 |⑧⑨⑩⑪|
口⑩⑩口 |⑫⑬⑭⑮|
26
口④⑤口 |①②③④|
口⑥⑦口 |⑤⑥⑦⑧|
口口口①
②⑧口③
口口口口
⑩口口⑪
⑫口口⑬ |⑨⑩⑪⑫|
口口⑨口 |⑬---|
27
①①①④ |①---|
③②③④ |②---|
③④①④ |③---|
③②②② |④---|
28
①②③口 |①-②-|
⑤⑥④口 |③-④-|
口口⑦口 |--⑤-|
口口口口 |⑥-⑦-|
29
口口口口 |①-②-|
口口口口 |③-④-|
②③口① |⑤---|
口口④⑤ |----|
30
口口②① |①-②-|
④③⑥⑤ |③-④-|
⑧⑦口口 |⑤-⑥-|
口口口口 |⑦-⑧-|
31
⑥⑥口⑦ |①-②-|
口口口口 |③-④-|
口口②① |⑤---|
④③⑤⑤ |⑥-⑦-|
32
口口④口 |①-②-|
口口⑤① |③-④-|
口⑥②口 |⑤---|
口⑦③口 |⑥-⑦-|
33
口①⑤口 |①-②-|
⑤②口⑤ |③-④-|
③⑤口口 |⑤---|
④口口口 |----|
34
①口口① |①---|
②口①② |----|
①②口① |②---|
②口口② |----|
35
口口口口 |①-②-|
⑦口口⑧ |③-④-|
⑤③④⑥ |⑤-⑥-|
口①②口 |⑦-⑧-|
36
①⑤⑤② |①-②-|
口⑦⑥口 |③-④-|
口口口口 |⑤-⑥-|
③⑥⑦④ |⑦---|
37
①⑧口口 |①-②-|
②⑦口口 |③-④-|
⑥③口口 |⑤-⑥-|
⑤④口口 |⑦-⑧-|
38
③口口① |①-②-|
④口口② |③-④-|
口口口口
口口口口
口口口⑥
口口⑥口
口⑥口口 |⑤---|
⑤⑤⑤⑤ |⑥---|
39
②③①口 |①---|
③②口① |--②-|
②口①口 |----|
口口口口 |③---|
40
口口口口 |①---|
口③③口 |--②-|
②③③① |③---|
①①②② |----|
41
①①②② |①---|
口口口① |--②-|
③③口③ |----|
②口口口 |③---|
42
口①②④ |①---|
口①④口 |--②-|
口③②口 |③---|
③①②口 |④---|
43
口①口口 |①---|
①③口① |--②-|
②口③② |----|
口口②口 |③---|
44
②口口① |①---|
②③①③ |--②-|
③①③② |③---|
①口口② |----|
45
②③③② |①---|
口口口口 |--②-|
口③③口 |----|
口①①口 |③---|
46
③口口口 |①-②-|
①口①口 |③-④-|
④口口②
①口①口
口口口⑤
⑦口口⑥
口口口口 |⑤-⑥-|
口口口⑧ |⑦-⑧-|
47
⑦⑧口⑥ |①-②-|
⑤口口④ |③-④-|
③口口② |⑤-⑥-|
①口口口 |⑦-⑧-|
48
口口①口 |①-②-|
口③②口 |③-④-|
口⑤④口 |⑤-⑥-|
口⑦⑥⑧ |⑦-⑧-|
49
⑧⑦⑦⑧ |①-②-|
⑤⑥⑥④ |③-④-|
③口口② |⑤⑥⑦⑧|
①⑨⑨口 |⑨---|
50
⑧⑧⑧⑧ |①-②③|
⑤⑦⑦⑥ |④-⑤⑥|
②④④③ |⑦---|
①口口① |⑧---|
51
口⑥⑥口 |①-②-|
③⑦⑦③ |③-④⑤|
②⑤④② |⑥---|
①⑦⑦① |⑦---|
52
口⑧⑧口 |①-②③|
⑤⑦⑦⑥ |④-⑤⑥|
②④④③ |⑦---|
①口口① |⑧---|
53
②④③① |①---|
④口口③ |②---|
①口口② |③---|
③①②④ |④---|
54
⑤⑧⑧④ |①-②③|
⑨⑦⑥⑨ |④⑤⑥⑦|
③⑨⑨② |⑧---|
口①①口 |⑨---|
55
⑤⑧⑧⑤ |①②③④|
⑨⑦⑥⑨ |⑤-⑥⑦|
④⑨⑨③ |⑧---|
口②①口 |⑨---|
56
③⑥⑥③ |①-②-|
口⑤④口 |③-④⑤|
②⑦⑦② |⑥---|
⑦①①⑦ |⑦---|
57
口口口口 |①-②-|
口口③口 |③---|
②口口口
口口①口
④口口⑤
口⑦口口
口口口口 |④-⑤-|
口⑥⑥口 |⑥-⑦-|
58
⑩⑨⑨⑩ |①②③④|
⑥⑩⑩⑤ |⑤⑥⑦⑧|
④⑧⑦③ |⑨---|
②口口① |⑩---|
59
口⑨⑨口 |①②③④|
⑥⑩⑩⑤ |⑤⑥⑦⑧|
④⑧⑦③ |⑨---|
②⑩⑩① |⑩---|
60
⑩⑨⑨⑩ |①②③④|
⑥⑩⑩⑤ |⑤⑥⑦⑧|
④⑧⑦③ |⑨---|
②口口① |⑩---|
61
⑤口口⑤ |①-②-|
口口口口 |③-④-|
④口口③ |⑤---|
②⑥⑥① |⑥---|
62
⑨口口⑨ |①-②③|
②③④⑤ |④⑤⑥⑦|
⑥⑦口口 |⑧-⑨-|
①⑧口① |----|
63
⑥⑤④⑥ |①②③④|
⑧口③⑩ |⑤-⑥-|
⑦口②⑨ |⑦⑧⑨⑩|
口口①口 |----|
64
①①④④ |--①-|
口②②口 |②-③-|
口口③③ |-④--|
⑤⑤口口 |⑤---|
65
③⑥口口 |--①-|
②⑤口口 |②-③-|
①④口口 |--④-|
口口⑥③ |⑤-⑥-|
66
口口③⑥ |--①-|
口口②⑤ |②-③-|
口口①④ |--④-|
⑥③口口 |⑤-⑥-|
67
①口③口 |①-②-|
①②③⑧ |③---|
口②⑥⑦ |④⑤⑥⑦|
口④⑤① |⑧---|
68
④口①口 |①---|
口②①④ |②---|
③②④口 |③---|
③口口口 |④---|
69
口口②② |①---|
①①口口 |--②-|
②②口口
口口①①
③③口口
③口口口
口口口口 |----|
口口口口 |③---|
70
口口②③ |①---|
口②③口 |--②-|
②③①① |③---|
②③①口 |----|
71
②②口口 |①---|
口口口口 |--②-|
③③口① |----|
口③口① |③---|
72
口②①① |①---|
口口②① |--②-|
口口口②
口口口②
③口④口
口③口④
④口③口 |③---|
口④③口 |④---|
73
口口口口 |①---|
①口②口 |--②-|
口①口②
①口②口
③口口③
③③口口
口口口口 |----|
口口口口 |③---|
74
口口③口 |①---|
口口口③ |--②-|
①①口口 |③---|
①②②① |----|
75
口①②口 |①---|
①口口② |--②-|
口口口口
②口口①
口口口口
口口口口
口口口③ |----|
口③③③ |③---|
76
①①口口 |①-②-|
①②④口 |③-④-|
①③口口
口口口口
口口口⑤
口⑧口口
口口⑦口 |⑤-⑥-|
口口口⑥ |⑦-⑧-|
77
①⑥②口 |①-②-|
口口⑤③ |③-④-|
口口⑧④ |⑤-⑥-|
口口口⑦ |⑦-⑧-|
78
②口口口 |①-②-|
③①口口 |③-④-|
⑦④口口 |⑤-⑥-|
⑧⑥⑤口 |⑦-⑧-|
79
①④④② |①---|
③①②④ |②---|
③②①④ |③---|
口③③口 |④---|
80
口口口① |①---|
口口①口 |----|
口①口口 |----|
①口口口 |----|
不确定度: 0