新たな幕開け
新井大樹
BASIC
Level: 5
BPM: 150
Notes: 376
1
口口口口 |----|
口口口口 |----|
口口口口 |----|
口口口口 |----|
2
口口口口 |①---|
①②③④ |②---|
口口口口 |③---|
口口口口 |④---|
3
口口口口 |①---|
口口口口 |②---|
①②③④ |③---|
口口口口 |④---|
4
口口口口 |①---|
口口口口 |②---|
口口口口 |③---|
①②③④ |④---|
5
②口口② |①---|
口口口口 |----|
口①①口 |②---|
口口口口 |----|
6
口口口口 |①---|
①②③④ |②---|
口口口口 |③---|
口口口口 |④---|
7
口口口口 |①---|
口口口口 |②---|
①②③④ |③---|
口口口口 |④---|
8
口口口口 |①---|
口口口口 |②---|
口口口口 |③---|
①②③④ |④---|
9
②口口② |①---|
口口口口 |----|
口①①口 |②---|
口口口口 |----|
10
口口口口 |①---|
①口口② |②---|
③④⑤⑥ |③-④-|
口口口口 |⑤-⑥-|
11
③④⑤⑥ |①---|
①口口② |②---|
口口口口 |③-④-|
口口口口 |⑤-⑥-|
12
口口口口 |①---|
①口口② |②---|
③④⑤⑥ |③-④-|
口口口口 |⑤-⑥-|
13
口口口口 |①---|
①口口② |②---|
口③④口 |③-④-|
口⑤⑥口 |⑤-⑥-|
14
口口口口 |①---|
①口口② |②---|
③④⑤⑥ |③-④-|
口口口口 |⑤-⑥-|
15
③④⑤⑥ |①---|
①口口② |②---|
口口口口 |③-④-|
口口口口 |⑤-⑥-|
16
口口口口 |①---|
①口口② |②---|
③④⑤⑥ |③-④-|
口口口口 |⑤-⑥-|
17
口口口口 |①---|
①口口② |②---|
口③④口 |③-④-|
口⑤⑥口 |⑤-⑥-|
18
口口口口 |①---|
①口口① |----|
口口口口 |----|
口口口口 |----|
19
口口口口 |①---|
口口口口 |----|
口①①口 |----|
口口口口 |----|
20
①①口口 |①---|
口②②口 |----|
口口口口 |②---|
口口口口 |----|
21
口口口口 |①---|
口口口口 |----|
①①口口 |----|
口口口口 |----|
22
口口①① |①---|
口②②口 |----|
口口口口 |②---|
口口口口 |----|
23
口口口口 |①---|
口口口口 |----|
口口①① |----|
口口口口 |----|
24
①①口口 |①---|
口②②口 |----|
口口口口 |②---|
口口口口 |----|
25
口口口口 |①---|
口口口口 |----|
①①口口 |----|
口口口口 |----|
26
口口①① |①---|
口②②口 |----|
口口口口 |②---|
口口口口 |----|
27
口口口口 |①---|
口口口口 |----|
口口①①
口口口口
口口口口
口口口口
③口口③ |②---|
口②②口 |③---|
28
①①口口 |①---|
口口②② |②---|
③③口口 |③---|
口口④④ |④---|
29
④口口④ |①---|
口③③口 |②---|
口口②② |③---|
①①口口 |④---|
30
口口口口 |①---|
③③②② |②---|
①①④④ |③---|
口口口口 |④---|
31
口口①① |①---|
②②口口 |②---|
口口③③ |③---|
④④口口 |④---|
32
口口口口 |①---|
①口口① |----|
口口口口 |②---|
口②②口 |----|
33
口①①口 |①---|
口②②口 |②---|
口③③口 |③---|
口口口口 |----|
34
口口口口 |①---|
①口口① |----|
口②②口 |②---|
口口口口 |----|
35
①①①① |①---|
口口口口 |----|
口口口口 |----|
口口口口 |----|
36
①①口口 |①---|
口②②口 |----|
口口口口 |②---|
口口口口 |----|
37
口口口口 |①---|
口口口口 |----|
①①口口 |----|
口口口口 |----|
38
口口①① |①---|
口②②口 |----|
口口口口 |②---|
口口口口 |----|
39
口口口口 |①---|
口口口口 |----|
口口①① |----|
口口口口 |----|
40
①①口口 |①---|
口②②口 |----|
口口口口 |②---|
口口口口 |----|
41
口口口口 |①---|
口口口口 |----|
①①口口 |----|
口口口口 |----|
42
口口①① |①---|
口②②口 |----|
口口口口 |②---|
口口口口 |----|
43
口口口口 |①---|
口口口口 |----|
③①①③ |②---|
口②②口 |③---|
44
①①口口 |①---|
口口②② |②---|
③③口口 |③---|
口口④④ |④---|
45
④口口④ |①---|
口③③口 |②---|
口口②② |③---|
①①口口 |④---|
46
口口口口 |①---|
③③②② |②---|
①①④④ |③---|
口口口口 |④---|
47
口口①① |①---|
②②口口 |②---|
口口③③ |③---|
④④口口 |④---|
48
口口口口 |①---|
①口口① |----|
口口口口 |②---|
口②②口 |----|
49
口①①口 |①---|
口②②口 |②---|
口③③口 |③---|
口口口口 |----|
50
口口口口 |①---|
①口口① |----|
口②②口 |②---|
口口口口 |----|
51
①①①① |①---|
口口口口 |----|
③②②③ |②---|
口口口口 |③---|
52
①②口口 |①-②-|
口③③口 |③---|
口⑥⑥口 |④-⑤-|
口口⑤④ |⑥---|
53
口①①口 |①---|
口②②口 |②---|
④③③④ |③---|
口口口口 |④---|
54
①②口口 |①-②-|
口③③口 |③---|
口⑥⑥口 |④-⑤-|
口口⑤④ |⑥---|
55
口①①口 |①---|
口②②口 |②---|
口③③口 |③---|
口④④口 |④---|
56
口口口口 |①---|
①口口① |----|
口口口口 |②---|
口②②口 |----|
57
口①①口 |①---|
口②②口 |②---|
口③③口 |③---|
口④④口 |④---|
58
口口口口 |①---|
①口口① |----|
口②②口 |②---|
口口口口 |----|
59
①①①① |①---|
口口口口 |----|
口口口口 |----|
口口口口 |----|
60
②口口② |①---|
口口口口 |--②-|
①③③① |----|
口口口口 |--③-|
61
①口口① |----|
口口口口 |--①-|
口口口口 |----|
口口口口 |----|
62
口③③口 |①---|
②口口② |--②-|
口口口口 |----|
口①①口 |--③-|
63
口口口口 |----|
口口口口 |----|
口口口口 |----|
口口口口 |----|
64
②口口② |①---|
口口口口 |--②-|
①③③① |----|
口口口口 |--③-|
65
①口口① |----|
口口口口 |--①-|
口口口口 |----|
口口口口 |----|
66
口③③口 |①---|
②口口② |--②-|
口口口口 |----|
口①①口 |--③-|
67
口口口口 |----|
口口口口 |----|
口口口口 |----|
口口口口 |----|
68
①口②② |①---|
口口口口 |②---|
③口④④ |③---|
口口口口 |④---|
69
口②②口 |①---|
①口口① |②---|
③口口③ |③---|
口④④口 |④---|
70
口口②② |①---|
①口口口 |②---|
口口④④ |③---|
③口口口 |④---|
71
口口口口 |①---|
①口③口 |②---|
口②口④ |③---|
口口口口 |④---|
72
①口②② |①---|
口口口口 |②---|
③口④④ |③---|
口口口口 |④---|
73
口②②口 |①---|
①口口① |②---|
③口口③ |③---|
口④④口 |④---|
74
口口②② |①---|
①口口口 |②---|
口口④④ |③---|
③口口口 |④---|
75
口口口口 |①---|
①口③口 |②---|
口②口④ |③---|
口口口口 |④---|
76
①①①① |①---|
口口口口 |----|
口口口口 |----|
口口口口 |----|
不确定度: 0