タイムラグ
つしまみれ

BASIC

Level: 3
BPM: 192-196
Notes: 193

全程BPM: 192-196飄忽不定
1
口口口口 |----|
口口口口 |----|
口口口口 |----|
口口口口 |----|
2
①口口口 |①---|
口②口口 |----|
口口口口 |②---|
口口口口 |----|
3
口口口口 |①---|
口口口口 |----|
口口②口 |②---|
口口口① |----|
4
口口口① |①---|
口口②口 |----|
口口口口 |②---|
口口口口 |----|
5
口口口口 |①---|
口口口口 |----|
口②口口 |②---|
①口口口 |----|
6
口口①口 |①---|
口②口口 |----|
口口口口 |②---|
口口口口 |----|
7
口口口口 |①---|
口口口口 |----|
口口①口 |②---|
口②口口 |----|
8
口口口口 |①---|
口口口口 |----|
口②口口 |②---|
口口①口 |----|
9
口②口口 |①---|
口口①口 |----|
口口口口 |②---|
口口口口 |----|
10
②口口① |①---|
口口口口 |----|
口口口口 |②---|
口口口口 |----|
11
口口口口 |①---|
口口口口 |----|
口②①口 |②---|
口口口口 |----|
12
口口口口 |①---|
口口口口 |----|
口口口口 |②---|
口②口① |----|
13
④口口口 |①---|
③口口口 |②---|
②口口口 |③---|
①口口口 |④---|
14
口口口口 |①---|
②口口① |----|
口口口口 |②---|
口口口口 |----|
15
口口口口 |①---|
口口口口 |----|
②口口① |②---|
口口口口 |----|
16
口口口口 |①---|
口口口口 |----|
口①口口 |②---|
口口②口 |----|
17
口口口④ |①---|
口口口③ |②---|
口口口② |③---|
口口口① |④---|
18
①①口口 |①---|
②②口口 |----|
口口口口 |②---|
口口口口 |----|
19
口口口口 |①---|
口口口口 |----|
口口①① |②---|
口口②② |----|
20
①①口口 |①---|
口口②② |----|
口口口口 |②---|
口口口口 |----|
21
④口口口 |①---|
③口口口 |②---|
②口口口 |③---|
①口口口 |④---|
22
口口①① |①---|
口口②② |----|
口口口口 |②---|
口口口口 |----|
23
口口口口 |①---|
口口口口 |----|
①①口口 |②---|
②②口口 |----|
24
①①口口 |①---|
口口②② |----|
口口口口 |②---|
口口口口 |----|
25
口口口④ |①---|
口口口③ |②---|
口口口② |③---|
口口口① |④---|
26
①口口口 |①---|
口②口口 |----|
口口口口 |②---|
口口口口 |----|
27
口口口① |①---|
口口②口 |----|
口口口口 |②---|
口口口口 |----|
28
①口口① |①---|
口②②口 |----|
口口口口 |②---|
口口口口 |----|
29
①口口① |①---|
口②②口 |----|
口②②口 |②---|
口口口口 |----|
30
①口口口 |①---|
口②口口 |----|
口口口口 |②---|
口口口口 |----|
31
口口口① |①---|
口口②口 |----|
口口口口 |②---|
口口口口 |----|
32
口口口① |①---|
口口口② |②---|
口口口③ |③---|
口口口④ |④---|
33
④口口口 |①---|
③口口口 |②---|
②口口口 |③---|
①口口口 |④---|
34
口口口口 |①---|
口①口口 |----|
口②口口 |②---|
口口口口 |----|
35
口口口口 |①---|
口口口口 |----|
口口口② |②---|
口口①口 |----|
36
口②口口 |①---|
口口①口 |----|
口口口口 |②---|
口口口口 |----|
37
③口口口 |①---|
①口口口 |②---|
口②②口 |③---|
口口口口 |----|
38
口口口口 |①---|
口①口口 |----|
口口口口 |②---|
口口口② |----|
39
口口口② |①---|
口口口口 |----|
口口①口 |②---|
口口口口 |----|
40
口口口口 |①---|
口口①口 |----|
口口口口 |②---|
②口口口 |----|
41
口口②口 |①---|
口口口口 |----|
口①口口 |②---|
口口口口 |----|
42
口口口口 |①---|
口①口口 |----|
口口②口 |②---|
口口口口 |----|
43
口口口口 |①---|
口口口口 |----|
口口口口 |②---|
口①②口 |----|
44
口口口口 |①---|
口口②口 |----|
口①口口 |②---|
口口口口 |----|
45
②①口口 |①---|
口口口口 |----|
口口口口 |②---|
口口口口 |----|
46
口口口② |①---|
口①口口 |----|
口口口口 |②---|
口口口口 |----|
47
②口口② |①---|
口口①口 |----|
口口口口 |②---|
口口口口 |----|
48
②口口② |①---|
口①①口 |----|
口口口口 |②---|
口口口口 |----|
49
②口口口 |①---|
口①①口 |----|
口①①口 |②---|
口口口口 |----|
50
口口口② |①---|
口①口口 |----|
口口口口 |②---|
口口口口 |----|
51
口口口② |①---|
口口①③ |----|
口口口口 |②---|
口口口口 |③---|
52
口口口口 |①---|
口口口口 |②---|
④口口① |③---|
③口口② |④---|
53
②口口口 |①---|
①③口口 |②---|
口口口口 |③---|
口口口口 |----|
54
口口口口 |①---|
口口口口 |----|
口①口口 |②---|
口口②口 |----|
55
口口口口 |①---|
口口②口 |----|
口口口① |②---|
口口口口 |----|
56
③②②③ |①---|
口①口口 |----|
口口口口 |②---|
口口口口 |③---|
57
口口口口 |①---|
①口口① |②---|
②口口② |③---|
③口口口 |----|
58
口口口口 |①---|
口口口口 |----|
口①口口 |②---|
口口②口 |----|
59
口口口口 |①---|
口口②口 |----|
口口口① |②---|
口口口口 |----|
60
③②②③ |①---|
口①口口 |----|
口口口口 |②---|
口口口口 |③---|
61
口口口口 |①---|
①口口① |②---|
②口口② |----|
口③③口 |③---|
62
③口口③ |①---|
口②②口 |②---|
口①①口 |----|
口口口口 |③---|
63
口口口口 |①---|
①口口① |②---|
②口口② |----|
口③③口 |③---|
64
口口口口 |①---|
②②②② |②---|
口①①口 |----|
口口口口 |----|


不确定度: 0

最終更新:2012年11月14日 16:02