ニンジャマンジャパンのテーマ
ニンジャマンジャパン

BASIC

Level: 2
BPM: 170
Notes: 132

1
口口口口 |----|
口口口口 |----|
口口口口 |----|
口口口口 |----|
2
口口口口 |----|
口口口口 |----|
口口口口 |----|
口口口口 |----|
3
口口口口 |①---|
口口①口 |----|
口口口口 |----|
口口口口 |----|
4
口口口口 |①---|
口①口口 |----|
口口口口 |----|
口口口口 |----|
5
口口口口 |①---|
口口口口 |----|
口①口口 |----|
口口口口 |----|
6
口口口口 |①---|
口口口口 |----|
口口①口 |----|
口口口口 |----|
7
口口口口 |①---|
口口口口 |----|
口口口① |----|
口口口口 |----|
8
口口口口 |①---|
口口口① |----|
口口口口 |----|
口口口口 |----|
9
口口口① |①---|
口口口口 |----|
口口口口 |----|
口口口口 |----|
10
口口①口 |①---|
口口口口 |----|
口口口口 |----|
口口口口 |----|
11
①口口口 |①---|
②口口口 |----|
口口口口 |②---|
口口口口 |----|
12
口口口口 |①---|
口①口口 |----|
口②口口 |②---|
口口口口 |----|
13
口口口口 |①---|
口口口口 |----|
口口口② |②---|
口口口① |----|
14
口口口口 |①---|
口口②口 |----|
口口①口 |②---|
口口口口 |----|
15
口口口口 |①---|
口口口口 |----|
口口口口 |②---|
①②口口 |----|
16
口口口口 |①---|
口口口口 |----|
口口口口 |②---|
口口①② |----|
17
口口口口 |①---|
口②②口 |----|
口①①口 |----|
口口口口 |②---|
18
口口口口 |----|
口口口口 |----|
口口口口 |----|
口口口口 |----|
19
①口口口 |①---|
②口口口 |----|
口口口口 |②---|
口口口口 |----|
20
口口口口 |①---|
口①口口 |----|
口②口口 |②---|
口口口口 |----|
21
口口口口 |①---|
口口口口 |----|
口口①口 |②---|
口口②口 |----|
22
口口口口 |①---|
口口口口 |----|
口口口口 |----|
口口口① |----|
23
口口口① |①---|
口口口② |----|
口口口口 |②---|
口口口口 |----|
24
口口口口 |①---|
口口①口 |----|
口口②口 |②---|
口口口口 |----|
25
口口口口 |①---|
口口口口 |----|
口①口口 |②---|
口②口口 |----|
26
口口口口 |①---|
口口口口 |----|
口口口口 |----|
①口口口 |----|
27
口口口口 |①---|
口口口口 |----|
①口口口 |②---|
②口口口 |----|
28
口口口口 |①---|
口口口口 |----|
口口口口 |----|
口①口口 |----|
29
口口①② |①---|
口口口口 |----|
口口口口 |②---|
口口口口 |----|
30
口口口口 |①---|
口口口① |----|
口口口口 |----|
口口口口 |----|
31
②①口口 |①---|
口口口口 |----|
口口口口 |②---|
口口口口 |----|
32
口口口口 |①---|
①口口口 |----|
口口口口 |----|
口口口口 |----|
33
口口口口 |①---|
口口口口 |----|
口口口① |②---|
口口口② |----|
34
口口口口 |①---|
口口口口 |----|
口口口口 |----|
口口①口 |----|
35
口口口口 |①---|
口口口口 |----|
②口口口 |②---|
①口口口 |----|
36
口口口口 |①---|
①口口口 |----|
口口口口 |----|
口口口口 |----|
37
口口口口 |①---|
口口口口 |----|
口口口② |②---|
口口口① |----|
38
口口口口 |①---|
口口口① |----|
口口口口 |----|
口口口口 |----|
39
①②口口 |①---|
口口口口 |----|
口口口口 |②---|
口口口口 |----|
40
口口①② |①---|
口口口口 |----|
口口口口 |②---|
口口口口 |----|
41
口口口口 |①---|
口口口口 |----|
口①①口 |----|
口口口口 |----|
42
口口口口 |①---|
口①①口 |----|
口口口口 |----|
口口口口 |----|
43
口口②① |①---|
口口口口 |----|
口口口口 |②---|
口口口口 |----|
44
②①口口 |①---|
口口口口 |----|
口口口口 |②---|
口口口口 |----|
45
口口口口 |①---|
①②口口 |----|
口口口口 |②---|
口口口口 |----|
46
口口口口 |①---|
口口①② |----|
口口口口 |②---|
口口口口 |----|
47
口①②口 |①---|
口口口口 |----|
口口口口 |②---|
口口口口 |----|
48
口口口口 |①---|
口②①口 |----|
口口口口 |②---|
口口口口 |----|
49
口口口口 |①---|
口口口口 |----|
口①②口 |②---|
口口口口 |----|
50
口口口口 |①---|
口口口口 |----|
口口口口 |----|
口口①口 |----|
51
①口口口 |①---|
②口口口 |----|
口口口口 |②---|
口口口口 |----|
52
口口口口 |①---|
口①口口 |----|
口②口口 |②---|
口口口口 |----|
53
口口口口 |①---|
口口口口 |----|
口口口② |②---|
口口口① |----|
54
口口口口 |①---|
口口②口 |----|
口口①口 |②---|
口口口口 |----|
55
口①②口 |①---|
口口口口 |----|
口口口口 |②---|
口口口口 |----|
56
口口口口 |①---|
口口①口 |----|
口口②口 |②---|
口口口口 |----|
57
口口口口 |①---|
口口口口 |----|
口口口口 |②---|
口②①口 |----|
58
口口口口 |①---|
口口口口 |----|
口①口口 |----|
口口口口 |----|
59
①口口口 |①---|
②口口口 |----|
口口口口 |②---|
口口口口 |----|
60
口口口口 |①---|
口①口口 |----|
口②口口 |②---|
口口口口 |----|
61
口口口口 |①---|
口口口口 |----|
口口口② |②---|
口口口① |----|
62
口口口口 |①---|
口口②口 |----|
口口①口 |②---|
口口口口 |----|
63
口口②① |①---|
口口口口 |----|
口口口口 |②---|
口口口口 |----|
64
②①口口 |①---|
口口口口 |----|
口口口口 |②---|
口口口口 |----|
65
口口口口 |①---|
口口口口 |----|
口①①口 |----|
口口口口 |----|
66
口口口口 |①---|
口口口口 |----|
口口口口 |②---|
①②口口 |----|
67
口口口口 |①---|
口口口口 |----|
口口口口
口口①口

口口口口
口口口口
口口口口 |②---|
口口③② |③---|
68
口口口口 |①---|
口②②口 |----|
口①①口 |----|
口口口口 |②---|
69
口口口口 |----|
口口口口 |----|
口口口口 |----|
口口口口 |----|
70
口口口口 |①---|
口口口口 |----|
口①②口 |②---|
口口口口 |----|
71
口口口口 |①---|
口②①口 |----|
口口口口 |②---|
口口口口 |----|
72
口口口口 |①---|
①口口口 |----|
②口口口 |②---|
口口口口 |----|
73
口口口口 |①---|
口口口口 |----|
口口口口 |②---|
①②口口 |----|
74
口口口口 |①---|
口口口口 |----|
口口②口 |②---|
口口①口 |----|
75
口④④口 |①---|
口③③口 |--②-|
②①口口 |----|
口口口口 |③-④-|


不确定度: 0

最終更新:2015年11月01日 03:30