CAT'S EYE
杏里
EXTREME
Level: 7
BPM: 145
Notes: 426
全程BPM在145附近飄忽不定
1
口口口口 |----|
口口口口 |----|
口口口口 |----|
口口口口 |----|
2
口口口② |----|
口口②口 |----|
口②口口 |--①-|
口①①① |-②--|
3
①①①口 |①---|
②②口口 |--②-|
口口口② |----|
口口口② |----|
4
口口口口 |①---|
口口口① |--②-|
①①①②
②口口口
口口口④
口口④口
口④口口 |--③-|
口③③③ |-④--|
5
①①①口 |①---|
②②口口 |--②-|
口口口② |----|
口口口② |----|
6
口口口口 |①---|
口口口① |--②-|
①①①② |----|
②②口口 |----|
7
⑨⑩⑦⑧ |①②③④|
⑪⑫⑤⑥ |⑤⑥⑦⑧|
⑬⑭③④ |⑨⑩⑪⑫|
⑮⑯①② |⑬⑭⑮⑯|
8
⑨⑩⑦⑧ |①②③④|
⑪⑫⑤⑥ |⑤⑥⑦⑧|
⑬⑭③④ |⑨⑩⑪⑫|
⑮⑯①② |⑬⑭⑮⑯|
9
口口口口 |①---|
②②口口 |--②-|
口口口② |----|
口口①② |----|
10
口口口口 |①---|
口口口① |--②-|
①①①②
②口口口
口口口④
口口④口
口④口口 |--③-|
口③③③ |-④--|
11
①①①口 |①---|
②②口口 |--②-|
口口口② |----|
口口口② |----|
12
口口口口 |①---|
口口口① |--②-|
①①①② |----|
②②口口 |----|
13
⑦⑤⑥口 |--①-|
④③口② |②-③-|
口口口口 |④-⑤-|
①口口口 |⑥-⑦-|
14
口口口② |①-②-|
口③①口 |--③-|
口①③口 |----|
②口口口 |----|
15
⑤④②① |--①-|
口口③口 |②-③-|
口⑥口口 |④-⑤-|
口口⑦口 |⑥-⑦-|
16
口口口① |①-②-|
③④口② |③-④-|
②口④③
①口口口
口口口⑥
口口⑥口
口⑥口口 |--⑤-|
口⑤⑤⑤ |-⑥--|
17
①①①口 |①-②-|
口④口③ |③-④-|
口口口口
②口口口
⑧口⑦口
⑤口口口
⑥口口口 |⑤-⑥-|
口口口口 |⑦-⑧-|
18
口口口② |①---|
口③①口 |②-③-|
口①③口 |----|
②口口口 |----|
19
口④②① |--①-|
口⑤③口 |②-③-|
口口口口 |④-⑤-|
口口⑦⑥ |⑥-⑦-|
20
①口口① |①-②-|
②口口② |③-④-|
④③④③ |----|
口④口口 |----|
21
口⑥②⑥ |①---|
②口②⑤ |②---|
口口口④ |-③④⑤|
①口①③ |⑥---|
22
③口③口 |①---|
口口口口 |②-③-|
口口②口 |----|
①口口口 |----|
23
口③口③ |①--②|
口口口口 |--③-|
口②口口 |----|
口口口① |----|
24
③口口口 |①---|
③口②口 |②-③-|
⑤口口口 |----|
④口口① |④-⑤-|
25
口口口口 |①-②-|
口口口① |③-④-|
口③②口 |----|
口④口④ |----|
26
③口③口 |①---|
口口口口 |②-③-|
口口②口 |----|
①口口口 |----|
27
口③口③ |①---|
口口口口 |②-③-|
口②口口 |----|
口口口① |----|
28
①②⑧⑦ |--①②|
口口口口 |③④⑤⑥|
口口④③ |⑦⑧--|
⑤⑥⑨⑨ |--⑨-|
29
①①口口 |①---|
③②②③ |②-③-|
③②②③ |----|
口口口口 |----|
30
②②②口 |①--②|
③口口口 |--③④|
口口口④
口口口①
⑥口口口
口口口口
口口口口 |⑤---|
⑤⑤⑤口 |--⑥-|
31
口②口② |----|
④③②③ |①---|
①②口② |②-③-|
口口②口 |--④-|
32
口②口② |----|
④③②③ |①---|
口②口② |②-③-|
①口②口 |--④-|
33
④⑦口口 |--①-|
⑤口口口 |②-③-|
③口①口 |④-⑤-|
口②口⑥ |⑥-⑦-|
34
③口口口 |----|
口①①口 |--①-|
①②②① |②---|
口①①口 |--③-|
35
口②口② |----|
④③②③ |①---|
①②口② |②-③-|
口口②口 |--④-|
36
口②口② |----|
④③②③ |①---|
口②口② |②-③-|
①口②口 |--④-|
37
④⑦口口 |--①-|
⑤口口口 |②-③-|
口②①口 |④-⑤-|
③口口⑥ |⑥-⑦-|
38
①口口① |----|
口③③口 |----|
口③③口 |①-②-|
②口口② |--③-|
39
①②③④ |----|
口口口口 |----|
口⑦⑥⑤ |①②③④|
口口口口 |-⑤⑥⑦|
40
③口口④ |①---|
①⑤口⑤ |--②-|
①⑤⑤⑤ |③--④|
②口⑤口 |--⑤-|
41
口口口口 |----|
①口口口 |--①-|
口口口口 |----|
口口口口 |----|
42
②②②口 |①--②|
③口口① |--③④|
①口口④
口口口①
⑥口口口
口口口口
口口口口 |⑤---|
⑤⑤⑤口 |--⑥-|
43
口②口② |----|
④③②③ |①---|
①②口② |②-③-|
口口②口 |--④-|
44
口②口② |----|
④③②③ |①---|
口②口② |②-③-|
①口②口 |--④-|
45
④⑦口口 |--①-|
⑤口口口 |②-③-|
③口①口 |④-⑤-|
口②口⑥ |⑥-⑦-|
46
③口口口 |----|
口①①口 |--①-|
①②②① |②---|
口①①口 |--③-|
47
口②口② |----|
④③②③ |①---|
①②口② |②-③-|
口口②口 |--④-|
48
口②口② |----|
④③②③ |①---|
口②口② |②-③-|
①口②口 |--④-|
49
④⑦口口 |--①-|
⑤口口口 |②-③-|
口②①口 |④-⑤-|
③口口⑥ |⑥-⑦-|
50
①口口① |----|
口③③口 |----|
口③③口 |①-②-|
②口口② |--③-|
51
①②③④ |----|
口口口口 |----|
口⑦⑥⑤ |①②③④|
口口口口 |-⑤⑥⑦|
52
③口口④ |①---|
①⑤口⑤ |--②-|
①⑤⑤⑤ |③--④|
②口⑤口 |--⑤-|
不确定度: 0