アストライアの双皿
ZODIACSYNDICATE

BASIC

Level: 6
BPM: 173
Notes: 507

1
口口②② |----|
口口口口 |----|
口口口口 |--①-|
①口口口 |--②-|
2
④④口口 |--①-|
口口①① |--②-|
口口②② |--③-|
口口口③ |--④-|
3
口口口口 |--①-|
①①口口 |--②-|
②②口口
口口口口

口口口口
口④④口
口口口口 |--③-|
③口口口 |--④-|
4
④③③④ |--①-|
②口口② |--②-|
口①①口 |--③-|
口口口口 |--④-|
5
口口口口 |--①-|
①口口① |--②-|
口口③口 |----|
口②②口 |--③-|
6
口口②② |①---|
口口③③ |②---|
口口④④ |③---|
①口口口 |④---|
7
②②口口 |①---|
③③口口 |②---|
④④口口 |③---|
口口口① |④---|
8
口口口口 |①---|
④②②④ |②---|
口③③口 |③---|
①口口口 |④---|
9
③②②③ |①---|
口①①口 |②---|
口④④口 |③---|
口口口口 |④---|
10
口口口口 |----|
口口口口 |----|
口口口口
口口口口
11
③③①① |①---|
④口口② |②---|
口口口口 |③---|
口口口口 |④---|
12
口口口口 |①---|
③③①① |②---|
口④②口 |③---|
口口口口 |④---|
13
口口口口 |①---|
口口口口 |②---|
③③①① |③---|
④口口② |④---|
14
口口口口 |①---|
口口口口 |②---|
口④②口 |③---|
③③①① |④---|
15
口口口① |①---|
②口口① |②---|
③口口口 |③---|
④口口口 |④---|
16
①口口口 |①---|
①口口② |②---|
口口口③ |③---|
口口口④ |④---|
17
口口①口 |①---|
口②①口 |②---|
口③口口 |③---|
口④口口 |④---|
18
口①口口 |①---|
口①②口 |②---|
口口③口 |③---|
口口④口 |④---|
19
口口口口 |①---|
②口口② |----|
口口口口 |②---|
①口口① |----|
20
②口口② |①---|
口①①口 |----|
口口口口 |②---|
口口口口 |----|
21
②①①② |①---|
口口口口 |----|
口口口口 |②---|
口口口口 |----|
22
口口口口 |①---|
口①①口 |----|
口②②口 |②---|
口口口口 |----|
23
口口口口 |①---|
口口口口 |----|
口口口口 |②---|
②①①② |----|
24
③③①① |①---|
④口口② |②---|
口口口口 |③---|
口口口口 |④---|
25
口口口口 |①---|
③③①① |②---|
口④②口 |③---|
口口口口 |④---|
26
口口口口 |①---|
口口口口 |②---|
③③①① |③---|
④口口② |④---|
27
口口口口 |①---|
口口口口 |②---|
口④②口 |③---|
③③①① |④---|
28
①口②口 |①---|
口③口口 |----|
口口④口 |②-③-|
口⑤口口 |④-⑤-|
29
口②口口 |①---|
口口③口 |----|
口④口① |②-③-|
口口⑤口 |④-⑤-|
30
口口口② |①---|
口口口② |----|
①口口口 |②---|
口口口口 |----|
31
①口②口 |①---|
①③口口 |----|
口口④口 |②-③-|
口⑤口口 |④-⑤-|
32
口口口口 |①---|
②口口口 |----|
②口口口 |②---|
口口①口 |----|
33
口口⑤口 |①---|
口④口① |----|
口口③① |②-③-|
口②口口 |④-⑤-|
34
口①口② |①---|
口口口② |----|
口口口口 |②---|
口口口口 |----|
35
①口③口 |①---|
①④②口 |②---|
口口⑤口 |③-④-|
口⑥口口 |⑤-⑥-|
36
口口口口 |①-②-|
口口口口 |③-④-|
④③⑦⑧ |⑤-⑥-|
⑤⑥②① |⑦-⑧-|
37
口口口口 |①-②-|
⑤⑥②① |③-④-|
④③⑦⑧ |⑤-⑥-|
口口口口 |⑦-⑧-|
38
④③⑦⑧ |①-②-|
⑤⑥②① |③-④-|
口口口口 |⑤-⑥-|
口口口口 |⑦-⑧-|
39
口口口口 |①-②-|
⑤⑥②① |③-④-|
④③⑦⑧ |⑤-⑥-|
口口口口 |⑦-⑧-|
40
②口口口 |①---|
③②口口 |----|
口③口口 |②---|
口口口① |③---|
41
口口口② |①---|
口口②③ |----|
口口③口 |②---|
①口口口 |③---|
42
口①②口 |①-②-|
口③④口 |③-④-|
口⑤⑥口 |⑤-⑥-|
口⑦⑧口 |⑦-⑧-|
43
①①②② |①--②|
③③④④ |--③-|
口口口口 |-④--|
口口口口 |----|
44
口口口口 |①---|
口口口口 |--②-|
②口口③ |③---|
口①①口 |----|
45
口口口① |----|
口口口② |①---|
口口口③ |②---|
口口口口 |③---|
46
①口口口 |----|
②口口口 |①---|
③口口口 |②---|
口口口口 |③---|
47
口口口口 |----|
口口①口 |①---|
口口②口 |②---|
口口③口 |③---|
48
口口口口 |----|
口①口口 |①---|
口②口口 |②---|
口③口口 |③---|
49
③口口口 |----|
①口口口 |①---|
②口口口 |②---|
口口口口 |③---|
50
口口口③ |----|
口口口① |①---|
口口口② |②---|
口口口口 |③---|
51
口①①口 |①--②|
口③③口 |--③-|
⑥②②⑥ |-④--|
⑤④④⑤ |⑤-⑥-|
52
口②②口 |①---|
①口口① |----|
口口口口 |②---|
口③③口 |③---|
53
③口口③ |①---|
①④④① |②---|
口口口口 |③---|
②口口② |④---|
54
②口口② |①---|
口口口口 |--②-|
口①①口
口口口口

口口口口
口口口口
口③③口 |----|
口口口口 |③---|
55
口口口口 |①---|
①①②② |②---|
口口口口 |③---|
③③④④ |④---|
56
口口口口 |①---|
口口口口 |----|
口①①口 |②---|
口②②口 |----|
57
口⑤⑥口 |①-②-③-|
⑦③④⑧ |④-⑤-⑥-|
⑨①②⑩ |⑦-⑧-⑨-|
⑪口口⑫ |⑩-⑪-⑫-|
58
口口口② |①---|
口口口口 |----|
口口口口 |②---|
口①口口 |----|
59
口口口口 |①---|
口口口② |----|
口口口口 |②---|
①①口口 |----|
60
口口口口 |①---|
口口口口 |----|
口口口② |②---|
①①口口 |----|
61
口口口口 |①---|
口口口口 |----|
口口口口 |②---|
①①口② |----|
62
口口口② |①---|
口口口④ |②---|
③③口口 |③---|
①①口口 |④---|
63
③③口口 |①---|
①①口口 |②---|
口口口② |③---|
口口口④ |④---|
64
口口口② |①---|
口口口④ |②---|
③③口口 |③---|
①①口口 |④---|
65
③③口口 |①---|
①①口口 |②---|
口口口② |③---|
口口口④ |④---|
66
口⑦⑧口 |①-②-|
口⑤⑥口 |③-④-|
口③④口 |⑤-⑥-|
口①②口 |⑦-⑧-|
67
口⑦⑥口 |①-②-|
⑧口口⑤ |③-④-|
①口口④ |⑤-⑥-|
口②③口 |⑦-⑧-|
68
口口口口 |①---|
口口口口 |----|
①口口口 |----|
口口口口 |----|
69
①口口② |①--②|
①③④② |--③-|
口③④口 |-④--|
⑤⑤⑥⑥ |⑤-⑥-|
70
口③④口 |①-②-|
②口口⑤ |③-④-|
①⑧口⑥ |⑤-⑥-|
口口⑦口 |⑦-⑧-|
71
口③④口 |①-②-|
②口口⑤ |③-④-|
口⑧口⑥ |⑤-⑥-|
①口⑦口 |⑦-⑧-|
72
①①口口 |①---|
③③②② |②---|
口口④④ |③---|
口口口口 |④---|
73
口⑤⑥口 |①-②-|
口⑦④口 |③-④-|
口③⑧口 |⑤-⑥-|
口①②口 |⑦-⑧-|
74
口③④口 |①-②-|
②口口⑤ |③-④-|
①⑧口⑥ |⑤-⑥-|
口口⑦口 |⑦-⑧-|
75
口③④口 |①-②-|
②口口⑤ |③-④-|
口⑧口⑥ |⑤-⑥-|
①口⑦口 |⑦-⑧-|
76
①②②① |①---|
口②②口 |②---|
③④④③ |③---|
口④④口 |④---|
77
⑦⑤⑥⑧ |①-②-|
①②③④ |③-④-|
口口口口 |⑤-⑥-|
口口口口 |⑦-⑧-|
78
口口口口 |①---|
口④⑤口 |--②-|
①口口② |--③-|
口③口口 |④-⑤-|
79
口口口口 |①---|
口口口① |----|
口口口口 |----|
口口口口 |----|
80
⑤④③口 |①---|
口口口② |--②-|
口口口口 |--③-|
口①口口 |④-⑤-|
81
口口③口 |①---|
口②口口 |②---|
口口①口 |③---|
口口口口 |----|
82
①口口① |①---|
口口口口 |----|
口口口口 |②---|
口②②口 |----|
83
①口口② |①---|
口①②口 |----|
口口口口 |②---|
口口口口 |----|
84
口口口口 |①---|
口口口口 |----|
口②①口 |②---|
②口口① |----|
85
口①②口 |①---|
①口口② |----|
口口口口 |②---|
口口口口 |----|
86
口口口口 |①---|
口口口口 |----|
②口口① |②---|
口②①口 |----|
87
口口口口 |①---|
口①①口 |----|
口①①口 |----|
口口口口 |----|
88
⑦⑦⑦⑦ |①--②|
⑥①①⑥ |-③-④|
②⑤⑤② |-⑤-⑥|
③④④③ |--⑦-|


不确定度: 0

最終更新:2012年12月18日 01:58