風の谷のナウシカ feat.チロ
新井大樹

BASIC

Level: 2
BPM: 128
Notes: 156

1
口口口口 |----|
口口口口 |----|
口口口口 |----|
口口口口 |----|
2
①口口口 |①---|
口口口口 |----|
口口口口 |----|
口口口口 |----|
3
口口口① |①---|
口口口口 |----|
口口口口 |----|
口口口口 |----|
4
口口口口 |①---|
①口口口 |----|
口口口口 |----|
口口口口 |----|
5
口口口口 |①---|
口口口① |----|
口口口口 |----|
口口口口 |----|
6
口①①口 |①---|
口口②口 |----|
口口口口 |②---|
口口口口 |----|
7
口口口口 |①---|
口口口口 |----|
口①①口 |②---|
口②口口 |----|
8
口口口口 |①---|
口①口口 |----|
口②口口 |②---|
口口口口 |----|
9
口口口口 |①---|
口口口口 |----|
口口①口 |----|
口口口口 |----|
10
口①①口 |①---|
口口②口 |----|
口口口口 |②---|
口口口口 |----|
11
口口口口 |①---|
口口口口 |----|
口①①口 |②---|
口②口口 |----|
12
口口口口 |①---|
口口①口 |----|
口口②口 |②---|
口口口口 |----|
13
口口口口 |①---|
口口口口 |----|
口①口口 |----|
口口口口 |----|
14
口口口口 |①---|
①②口口 |----|
口口口口 |②---|
口口口口 |----|
15
口口口口 |①---|
口口①② |----|
口口口口 |②---|
口口口口 |----|
16
口口口口 |①---|
口口口口 |----|
口口口① |----|
口口口口 |----|
17
口口口口 |----|
口口口口 |----|
口口口口 |----|
口口口口 |----|
18
口口口口 |①---|
口口②① |----|
口口口口 |②---|
口口口口 |----|
19
口口口口 |①---|
②①口口 |----|
口口口口 |②---|
口口口口 |----|
20
口口口口 |①---|
口口口口 |----|
①口口口 |----|
口口口口 |----|
21
口口口口 |----|
口口口口 |----|
口口口口 |----|
口口口口 |----|
22
口①①口 |①---|
口口②口 |----|
口口口口 |②---|
口口口口 |----|
23
口口口口 |①---|
口口口口 |----|
口①①口 |②---|
口②口口 |----|
24
口口口口 |①---|
口①口口 |----|
口②口口 |②---|
口口口口 |----|
25
口口口口 |①---|
口口口口 |----|
口口①口 |----|
口口口口 |----|
26
口①①口 |①---|
口口②口 |----|
口口口口 |②---|
口口口口 |----|
27
口口口口 |①---|
口口口口 |----|
口①①口 |②---|
口②口口 |----|
28
口口口口 |①---|
口口①口 |----|
口口②口 |②---|
口口口口 |----|
29
口口口口 |①---|
口口口口 |----|
口①口口 |----|
口口口口 |----|
30
口口口口 |①---|
①②口口 |----|
口口口口 |②---|
口口口口 |----|
31
口口口口 |①---|
口口①② |----|
口口口口 |②---|
口口口口 |----|
32
口口口口 |①---|
口口口口 |----|
口口口① |----|
口口口口 |----|
33
口口口口 |----|
口口口口 |----|
口口口口 |----|
口口口口 |----|
34
口口口口 |①---|
口口②① |----|
口口口口 |②---|
口口口口 |----|
35
口口口口 |①---|
②①口口 |----|
口口口口 |②---|
口口口口 |----|
36
口口口口 |①---|
口口口口 |----|
①口口口 |----|
口口口口 |----|
37
口口口口 |----|
口口口口 |----|
口口口口 |----|
口口口口 |----|
38
①①口口 |①---|
口②②口 |②---|
口口③③ |③---|
口口口口 |----|
39
①①①① |①---|
②②②② |----|
口口口口 |②---|
口口口口 |----|
40
口口①① |①---|
口②②口 |②---|
③③口口 |③---|
口④④口 |④---|
41
口口口口 |①---|
口口口口 |----|
口口①① |----|
口口口口 |----|
42
口口①① |①---|
口②②口 |②---|
③③口口 |③---|
口口口口 |----|
43
①①①① |①---|
②②②② |----|
口口口口 |②---|
口口口口 |----|
44
①①口口 |①---|
口②②口 |②---|
口口③③ |③---|
口④④口 |④---|
45
口口③③ |①---|
口②②口 |----|
①①口口 |②---|
口口口口 |③---|
46
①①口口 |①---|
口口口口 |----|
口口口口 |----|
口口口口 |----|
47
口口①口 |①---|
口②口口 |②---|
口口③口 |③---|
口④口口 |④---|
48
口口口口 |①---|
口口口口 |----|
口口口口 |----|
口口①口 |----|
49
口口口口 |----|
口口②口 |----|
口①口口 |①---|
口口口口 |②---|
50
口①①口 |①---|
②口口② |----|
口口口口 |②---|
口口口口 |----|
51
口口口口 |①---|
口口口口 |----|
①口口① |②---|
口②②口 |----|
52
口口口口 |①---|
口①①口 |----|
口①①口 |----|
口口口口 |----|
53
①口口口 |①---|
口口口口 |----|
口口口口 |----|
口口口口 |----|
54
口口口① |①---|
口口口口 |----|
口口口口 |----|
口口口口 |----|
55
口①口口 |①---|
口口口口 |----|
口口口口 |----|
口口口口 |----|
56
口口①口 |①---|
口口②口 |----|
口口口口 |②---|
口口口口 |----|
57
口口口口 |①---|
口口口口 |----|
口口①口 |②---|
口口②口 |----|
58
口①口口 |①---|
口②口口 |----|
口口口口 |②---|
口口口口 |----|
59
口口口口 |①---|
口口口口 |----|
口①口口 |②---|
口②口口 |----|
60
口口口① |①---|
口口口② |----|
口口口口 |②---|
口口口口 |----|
61
口口口口 |①---|
口口口口 |----|
口口口① |②---|
口口口② |----|
62
①口口口 |①---|
②口口口 |----|
口口口口 |②---|
口口口口 |----|
63
口口口口 |①---|
口口口口 |----|
①口口口 |②---|
②口口口 |----|
64
口口口口 |①---|
口①①口 |----|
口①①口 |----|
口口口口 |----|


不确定度: 0

最終更新:2012年11月14日 15:29