風の谷のナウシカ feat.チロ
新井大樹

ADVANCED

Level: 5
BPM: 128
Notes: 471

1
口口口口 |----|
口口口口 |----|
口口口口 |----|
口口口口 |----|
2
①口口② |①---|
④口③口 |②---|
口口口口 |③---|
口口口口 |④---|
3
口口口口 |①---|
口③②口 |②---|
口①口④ |③---|
口口口口 |④---|
4
口口口② |①---|
口口③口 |②---|
①④口口 |③---|
口口口口 |④---|
5
②口口口 |①---|
口③口口 |②---|
口口④口 |③---|
①口口口 |④---|
6
口①①口 |①-②-|
②口⑤② |③-④-|
③⑤口③ |⑤---|
口④④口 |----|
7
③口口④ |①-②-|
口③④口 |--③-|
口②①口 |④---|
②口口① |----|
8
口①①口 |①---|
口②②口 |--②-|
③口口③ |--③-|
口④④口 |④---|
9
口口口口 |----|
口口口口 |----|
口口口口 |----|
口口口口 |----|
10
口④⑤⑤ |①-②-|
③口口口 |③-④-|
②口口口 |⑤---|
口①①口 |----|
11
①口口④ |①-②-|
口①④口 |--③-|
口②③口 |④---|
②口口③ |----|
12
口④④口 |①---|
③口口③ |--②-|
口①①口 |--③-|
②口口② |④---|
13
②口口② |①---|
口①①口 |----|
口口口口 |②---|
口口口口 |----|
14
⑥④④⑤ |①-②-|
口③口口 |③-④-|
口口②口 |--⑤-|
口口口① |--⑥-|
15
口④①口 |①---|
口口②口 |--②-|
口⑤③口 |③---|
口口口口 |④-⑤-|
16
口口口口 |①---|
口口口口 |----|
口②②口 |②---|
口①口口 |----|
17
②口口② |①---|
口①①口 |----|
口口口口 |②---|
口口口口 |----|
18
口⑥口口 |①-②-|
⑥口⑤③ |③-④-|
口⑤②④ |--⑤-|
口①④口 |--⑥-|
19
口⑤⑤口 |①---|
④③③④ |--②-|
口②②口 |③-④-|
口①①口 |--⑤-|
20
①口口① |①---|
口口口口 |----|
口②②口 |②---|
口口口口 |----|
21
①口口① |①---|
口②②口 |----|
口口口口 |②---|
口口口口 |----|
22
口①①口 |①-②-|
②⑤口② |③-④-|
③口⑤③ |⑤---|
口④④口 |----|
23
口①①口 |①-②-|
②口口② |--③-|
口③③口 |④---|
口④④口 |----|
24
口①①口 |①---|
②口口② |--②-|
口③③口 |--③-|
口④④口 |④---|
25
口口口口 |----|
口口口口 |----|
口口口口 |----|
口口口口 |----|
26
①口口口 |①-②-|
口②③口 |③-④-|
口口口④ |⑤---|
口口⑤口 |----|
27
口口口① |①-②-|
口口②口 |--③-|
③口口口 |④---|
口④口口 |----|
28
口口口④ |①---|
①口③④ |--②-|
①②③口 |--③-|
口②口口 |④---|
29
口口口口 |----|
口口口口 |----|
口口口口 |----|
口口口口 |----|
30
⑥④④⑤ |①-②-|
③③口口 |③-④-|
口②②口 |--⑤-|
口口①① |--⑥-|
31
口④①口 |①---|
口口②口 |--②-|
口⑤③口 |③-④-|
口口口口 |--⑤-|
32
口口口口 |①---|
口口口口 |----|
口②②口 |②---|
口①口口 |----|
33
①口口① |①---|
口②②口 |----|
口口口口 |②---|
口口口口 |----|
34
口⑥③口 |①-②-|
⑥②⑤③ |③-④-|
①⑤②④ |--⑤-|
口①④口 |--⑥-|
35
口口口口 |①---|
口①口① |--②-|
口②②口
口口口口

口④④口
⑤口口⑤
口口口口 |③---|
③口口③ |④-⑤-|
36
口口口口 |①---|
口口口口 |----|
口②②口 |②---|
口①①口 |----|
37
口口口口 |①---|
口口口口 |----|
①②②① |②---|
口口口口 |----|
38
⑤⑥⑥⑤ |①-②-|
④③③④ |③-④-|
①②②① |⑤-⑥-|
口①①口 |----|
39
④口口④ |①-②-|
③④④③ |--③-|
①②②① |④---|
口①①口 |----|
40
⑤②⑦④ |①-②-|
①⑥③⑧ |③-④-|
⑤②⑦④ |⑤-⑥-|
①⑥③⑧ |⑦-⑧-|
41
口②口④ |①-②-|
①口③口 |----|
口②口口 |③---|
①口口口 |④---|
42
⑤⑥⑥⑤ |①-②-|
④③③④ |③-④-|
①②②① |⑤-⑥-|
口①①口 |----|
43
④口口④ |①-②-|
③④④③ |--③-|
①②②① |④---|
口①①口 |----|
44
⑤②⑦④ |①-②-|
①⑥③⑧ |③-④-|
⑤②⑦④ |⑤-⑥-|
①⑥③⑧ |⑦-⑧-|
45
口②口口 |①-②-|
①口⑦口 |--③-|
⑥②口④ |④-⑤-|
①③⑤口 |⑥-⑦-|
46
口口口口 |①---|
口①口口 |----|
口口口口 |----|
口口口口 |----|
47
①①①① |①---|
②②②② |②---|
③③③③ |③---|
④口口④ |④---|
48
口口口口 |①-②-|
口口口口 |----|
口口口口 |----|
口①②口 |----|
49
⑤③④口 |----|
口①②口 |--①-|
口口口口 |②-③-|
口口口口 |④-⑤-|
50
口口口① |①---|
口②②口 |----|
口口口口 |②---|
口口口口 |----|
51
口口口口 |①---|
①口口① |----|
②口口② |②---|
口口口口 |----|
52
③④②① |①-②-|
⑦⑧⑥⑤ |③-④-|
口口口口 |⑤-⑥-|
口口口口 |⑦-⑧-|
53
口口口口 |①-②-|
口口口口 |③-④-|
③④②① |⑤-⑥-|
⑦⑧⑥⑤ |⑦-⑧-|
54
③④②① |①-②-|
⑦⑧⑥⑤ |③-④-|
口口口口 |⑤-⑥-|
口口口口 |⑦-⑧-|
55
口口口口 |①-②-|
口口口口 |③-④-|
③④②① |⑤-⑥-|
⑦⑧⑥⑤ |⑦-⑧-|
56
⑥口①① |①-②-|
⑧口③③ |③-④-|
②口⑤⑤ |⑤-⑥-|
④口⑦⑦ |⑦-⑧-|
57
口⑥①① |①-②-|
口⑧③③ |③-④-|
口②⑤⑤ |⑤-⑥-|
口④⑦⑦ |⑦-⑧-|
58
⑥口①① |①-②-|
⑧口③③ |③-④-|
②口⑤⑤ |⑤-⑥-|
口④⑦⑦ |⑦-⑧-|
59
口口①① |①-②-|
口口③③ |③-④-|
⑥②⑤⑤ |⑤-⑥-|
④⑧⑦⑦ |⑦-⑧-|
60
⑥口①① |①-②-|
⑧口③③ |③-④-|
口②⑤⑤ |⑤-⑥-|
④口⑦⑦ |⑦-⑧-|
61
口⑥①① |①-②-|
口⑧③③ |③-④-|
口②⑤⑤ |⑤-⑥-|
口④⑦⑦ |⑦-⑧-|
62
⑥口①① |①-②-|
⑧口③③ |③-④-|
②口⑤⑤ |⑤-⑥-|
口④⑦⑦ |⑦-⑧-|
63
口口①① |①-②-|
口⑧③③ |③-④-|
⑥②⑤⑤ |⑤-⑥-|
④口⑦⑦ |⑦-⑧-|
64
口①口口 |①---|
①口①口 |----|
口①口口 |----|
口①口口 |----|


不确定度: 0

最終更新:2012年11月14日 15:29