風の谷のナウシカ feat.チロ
新井大樹

EXTREME

Level: 8
BPM: 128
Notes: 653

1
口口口口 |----|
口口口口 |----|
口口口口 |----|
口口口口 |----|
2
①②④③ |①-②-|
⑤⑥⑧⑦ |③-④-|
口口口口 |⑤-⑥-|
口口口口 |⑦-⑧-|
3
口口口口 |①-②-|
口口口口 |③-④-|
①②④③ |⑤-⑥-|
⑤⑥⑧⑦ |⑦-⑧-|
4
①②④③ |①-②-|
⑤⑥⑧⑦ |③-④-|
口口口口 |⑤-⑥-|
口口口口 |⑦-⑧-|
5
④①①口 |①-②-|
③口口⑤ |③-④⑤|
①②④③
口口口口

口口口口
口⑦⑧口
口⑨口口 |⑥⑦⑧-|
⑥⑧⑩⑨ |⑨-⑩-|
6
口①①④ |①-②-|
②③口② |③-④-|
口口③口
④口口口

口⑥口口
口口⑤口
口⑤口口 |⑤---|
口口口口 |⑥---|
7
④口口口 |①-②-|
口④口③ |③-④-|
口②①口
②口口①

口口口⑤
口口⑤口
口口⑥口 |⑤---|
口口口口 |⑥---|
8
①③口⑤ |①---|
③口⑤② |②-③-|
口⑤④⑥ |④-⑤-|
⑤口⑥口 |⑥---|
9
④口口④ |①---|
口①口口 |②---|
口口③口 |③---|
口②口口 |④---|
10
口④⑤口 |①-②-|
③口口⑤ |③-④-|
②口⑥③ |⑤---|
口①①口 |⑥---|
11
①口口⑤ |①-②-|
③①⑤口 |③-④-|
口②④口 |⑤---|
②⑥口④ |⑥---|
12
⑤口口口 |①---|
⑤②⑤① |②-③-|
口④③① |--④-|
口④③口 |⑤---|
13
④口①③ |①---|
口①③口 |②---|
口口口④ |③---|
②口口口 |④---|
14
口④④口 |①-②-|
③③口口 |③-④-|
口②②口
①口口①

⑥口口⑤
口口口口
口口⑥口 |--⑤-|
口⑤口口 |--⑥-|
15
口⑥①口 |①---|
口口③⑤ |②-③-|
口⑦④口 |④-⑤-|
①④口② |⑥-⑦-|
16
口口口口 |①---|
口口口口 |②---|
口口口口 |③-④-|
①③④② |----|
17
③口①③ |①---|
口①口口 |--②-|
①口口口 |③---|
口②③④ |--④-|
18
口⑦③口 |①-②-|
⑦②⑥③ |③-④-|
①⑥②④ |⑤-⑥-|
⑤①④口 |--⑦-|
19
口⑥⑥口 |①---|
⑤口④⑤ |②-③-|
口③③① |④-⑤-|
②④①⑤ |--⑥-|
20
①口口① |①---|
口口口口 |②---|
口口③口 |③-④-|
②③④口 |----|
21
①口口① |①--②|
③口口② |--③④|
口口口④
口口口口

⑦口口⑦
口⑥⑤口
口⑧⑨口 |⑤⑥⑦-|
⑩口口口 |⑧⑨⑩-|
22
口①①口 |①-②-|
②⑤口② |③-④-|
③口⑤③ |⑤---|
⑥④④口 |⑥---|
23
口①①口 |①-②-|
②口口② |③-④-|
口④④口 |⑤---|
⑥⑤⑤③ |⑥---|
24
口①①口 |①---|
④③③④ |②-③-|
口④④② |--④-|
⑤口口⑤ |⑤---|
25
口口口口 |①---|
口口②口 |②---|
口口口口
口①①口

口口口口
口口口口
④③口口 |③---|
口④口口 |④---|
26
①③①③ |①-②-|
④②④② |③-④-|
⑤⑤口⑤ |⑤---|
口⑥口口 |⑥---|
27
④①④① |①-②-|
②⑤②⑤ |③-④-|
口口口口 |⑤---|
口⑥③口 |⑥---|
28
④口⑤口 |①---|
口④①⑤ |②-③-|
③口④① |--④-|
⑤③②④ |⑤---|
29
口①口口 |①---|
口口①口 |②---|
口口口①
口②口口

口口口③
口口④口
口口口④ |③---|
口口口口 |④---|
30
⑥④④⑤ |①-②-|
③③口口 |③-④-|
口②②口 |--⑤-|
口口①① |--⑥-|
31
口④①口 |①---|
口口②口 |--②-|
口⑤③口 |③-④-|
口口口口 |--⑤-|
32
口口口口 |①---|
口口口口 |②---|
口口口口
口①②口

口口口口
口口口口
口③③口 |③-④-|
口④口口 |----|
33
①口口① |①---|
口③③口 |②---|
口口口口 |③---|
④口②口 |④---|
34
口⑥③口 |①-②-|
⑥②⑤③ |③-④-|
①⑤②④ |--⑤-|
口①④口 |--⑥-|
35
口⑦⑦口 |①---|
⑥④④⑥ |②-③-|
口③③⑤ |④-⑤-|
②①①口 |⑥-⑦-|
36
①口口① |①---|
口口口③ |②---|
口③③口 |③-④-|
口②④口 |----|
37
口②口口 |①---|
④①①③ |②-③④|
①口口①
口口口口

⑦⑨⑥⑧
口口口口
口⑤⑤口 |⑤⑥⑦-|
口口口口 |⑧-⑨-|
38
⑤⑥⑥⑤ |①-②-|
④③③④ |③-④-|
①②②① |⑤-⑥-|
⑦①①③ |⑦---|
39
⑤口口⑤ |①-②-|
④⑤⑤④ |③-④-|
①②②① |⑤---|
⑥①①③ |⑥---|
40
口②口④ |①-②-|
①口③口 |③-④-|
口②口④
口①③口

⑤口⑦口
口⑥口⑧
⑤口⑦口 |⑤-⑥-|
口⑥口⑧ |⑦-⑧-|
41
⑤②口⑤ |①-②-|
①④④口 |③---|
口②口口 |④---|
①口③口 |⑤---|
42
⑤⑥⑥⑤ |①-②-|
④③③④ |③-④-|
①②②① |⑤-⑥-|
⑦①①③ |⑦---|
43
口口口口 |①-②-|
④口口④ |③-④-|
①②②①
口①①③

⑤口口⑤
口⑤⑤口
口口口口 |⑤---|
口⑥口口 |⑥---|
44
⑤②⑦④ |①-②-|
①⑥③⑧ |③-④-|
⑤②⑦④ |⑤-⑥-|
①⑥③⑧ |⑦-⑧-|
45
口②口口 |①-②-|
①口③口 |③-④-|
口②口口
①④口口

口口口口
口口⑧口
⑦口口⑤ |⑤-⑥-|
口口⑥⑦ |⑦-⑧-|
46
口口口口 |①---|
口①口口 |②---|
口口口口 |----|
②口口③ |③---|
47
①口口① |①---|
②①①② |②---|
③②②③ |③---|
④口口④ |④---|
48
口口口口 |①-②-|
口口口口 |③---|
③口口④ |----|
口①②口 |④---|
49
⑦⑤⑥口 |①---|
①③④① |②-③-|
口口口口 |④-⑤-|
②⑥口口 |⑥-⑦-|
50
口口口① |①---|
口③③口 |②---|
口②④口 |③---|
口口口口 |④---|
51
口口口口 |①---|
①口口① |----|
②口口② |②---|
①口口① |----|
52
③④②① |①-②-|
⑦⑧⑥⑤ |③-④-|
口口①口 |⑤-⑥-|
口口口口 |⑦-⑧-|
53
口口口口 |①-②-|
口口口口 |③-④-|
③④②① |⑤-⑥-|
⑦⑧⑥⑤ |⑦-⑧-|
54
③④②① |①-②-|
⑦⑧⑥⑤ |③-④-|
口口口口 |⑤-⑥-|
口口口口 |⑦-⑧-|
55
口口口口 |①-②-|
口口口口 |③-④-|
③④②① |⑤-⑥-|
⑦⑧⑥⑤ |⑦-⑧-|
56
⑥口①⑤ |①②③④|
②⑧⑦① |⑤⑥⑦⑧|
口④③口
口口口口

⑯口口⑮
⑫口口⑪
口口⑬⑨ |⑨⑩⑪⑫|
⑭⑩口口 |⑬⑭⑮⑯|
57
口④①口 |①②③④|
口⑧⑦口 |⑤⑥⑦⑧|
口②口口
口⑥③⑤

⑫口口⑬
⑩口口⑨
⑭口⑪口 |⑨⑩⑪⑫|
⑯口⑮口 |⑬⑭⑮⑯|
58
⑥口口⑦ |①②③④|
口④⑤③ |⑤⑥⑦⑧|
⑧②口①
口口口口

口⑭⑮口
⑫口口⑬
口⑯口⑪ |⑨⑩⑪⑫|
口⑩口⑨ |⑬⑭⑮⑯|
59
⑤口口口 |①②③④|
口⑦④口 |⑤⑥⑦⑧|
②口①⑧
口③口⑥

口⑨⑭口
⑬口⑯⑩
口⑮⑫口 |⑨⑩⑪⑫|
⑪口口口 |⑬⑭⑮⑯|
60
口⑦口④ |①②③④|
口③口⑥ |⑤⑥⑦⑧|
⑤口⑧口
口①口②

口口⑫口
⑨⑬口⑯
口⑪口⑭ |⑨⑩⑪⑫|
口⑮⑩口 |⑬⑭⑮⑯|
61
①口⑦口 |①②③④|
⑤⑧②口 |⑤⑥⑦⑧|
③⑥口口
口口④口

⑭⑫口口
口口⑮⑬
口⑯⑨⑪ |⑨⑩⑪⑫|
⑩口口口 |⑬⑭⑮⑯|
62
口⑧⑤③ |①②③④|
口②口口 |⑤⑥⑦⑧|
④口口⑦
口⑥①口

口口口⑬
⑩⑭口口
⑯⑫⑨口 |⑨⑩⑪⑫|
口口⑪⑮ |⑬⑭⑮⑯|
63
口②⑦口 |①②③④|
⑥⑧①③ |⑤⑥⑦⑧|
口口口⑤
口④口口

口⑫口口
口口⑪⑬
⑭⑯⑨口 |⑨⑩⑪⑫|
⑩口⑮口 |⑬⑭⑮⑯|
64
口口口口 |①---|
①口口口 |----|
口口口① |----|
口口口口 |----|


不确定度: 0

最終更新:2012年11月14日 15:29