ET-KING

BASIC

Level: 3
BPM: 110
Notes: 198

1
口口口口 |----|
口口口口 |----|
口口口口 |----|
口口口口 |----|
2
口②③口 |①---|
口口口口 |----|
口①①口 |②---|
口口口口 |③---|
3
口口口口 |①---|
②口口③ |----|
口口口口 |②---|
口①①口 |③---|
4
口口口口 |①---|
口①②口 |②---|
口④③口 |③---|
口口口口 |④---|
5
口①①口 |①---|
口口口口 |----|
②口口③ |②---|
口口口口 |③---|
6
②口口③ |①---|
口口口口 |----|
口①①口 |②---|
口口口口 |③---|
7
口口口口 |①---|
②口口③ |----|
口口口口 |②---|
口①①口 |③---|
8
口口口口 |①---|
口②①口 |②---|
口③④口 |③---|
口口口口 |④---|
9
口口口口 |①---|
②口口③ |----|
口口口口 |②---|
口①①口 |③---|
10
口②③口 |①---|
口口口口 |----|
口①①口 |②---|
口口口口 |③---|
11
口口口口 |①---|
②口口③ |----|
口口口口 |②---|
口①①口 |③---|
12
口口口口 |①---|
口①②口 |②---|
口④③口 |③---|
口口口口 |④---|
13
口①①口 |①---|
口口口口 |----|
②口口③ |②---|
口口口口 |③---|
14
②口口③ |①---|
口口口口 |----|
口①①口 |②---|
口口口口 |③---|
15
口口口口 |①---|
②口口③ |----|
口口口口 |②---|
口①①口 |③---|
16
口口口口 |①---|
口②①口 |②---|
口③④口 |③---|
口口口口 |④---|
17
口口口口 |①---|
②口口③ |----|
口口口口 |②---|
口①①口 |③---|
18
②口口③ |①---|
口口口口 |----|
口①口口 |②---|
口口口口 |③---|
19
②口口③ |①---|
口口口口 |----|
口①①口 |②---|
口口口口 |③---|
20
②口口③ |①---|
口①口口 |----|
口①①口 |②---|
口口口口 |③---|
21
口口口口 |①---|
①口口② |②---|
③口口④ |③---|
口口口口 |④---|
22
口口口口 |①---|
口①①口 |----|
口口口口 |----|
口口口口 |----|
23
口口口口 |①---|
①②口口 |②---|
口口③口 |③---|
口口口④ |④---|
24
口口口口 |①---|
②口①③ |----|
口①口口 |②---|
口口口口 |③---|
25
口口口口 |①---|
②①口③ |----|
口口①口 |②---|
口口口口 |③---|
26
口①口口 |①---|
口②口口 |②---|
口③口口 |③---|
口④口口 |④---|
27
口口①口 |①---|
口口②口 |②---|
口口③口 |③---|
口口④口 |④---|
28
口①①口 |①---|
②口口③ |----|
口口口口 |②---|
口口口口 |③---|
29
①①①① |①---|
口口口口 |②---|
②口口口 |③---|
口③④口 |④---|
30
口口口口 |①---|
口口③口 |②---|
口④口② |③---|
口口口① |④---|
31
④口口④ |①---|
①③③② |②---|
口口口口 |③---|
口口口口 |④---|
32
口口口口 |①---|
①口口② |②---|
口③④口 |③---|
口口口口 |④---|
33
口口口口 |①---|
口口口口 |②---|
③口口④ |③---|
口①②口 |④---|
34
口口口口 |①---|
①③③口 |----|
口②②口 |②---|
口口口口 |③---|
35
口口口口 |①---|
①口口② |②---|
③口口④ |③---|
口口口口 |④---|
36
①②③口 |①---|
口④④口 |②---|
口④④口 |③---|
口口口口 |④---|
37
口④④口 |①---|
口③③口 |②---|
口口②① |③---|
口口口口 |④---|
38
①口③口 |①---|
口口②口 |----|
口口口口 |②---|
口口口口 |③---|
39
口③口① |①---|
口②口口 |----|
口口口口 |②---|
口口口口 |③---|
40
口口口口 |①---|
口口②口 |----|
①口③口 |②---|
口口口口 |③---|
41
口口口口 |①---|
口③口② |②---|
口④口① |③---|
口口口口 |④---|
42
②口口② |①---|
口口口口 |----|
口口口口 |②---|
①口口① |----|
43
②口口② |①---|
口口口口 |----|
口口口口 |②---|
①口口① |----|
44
口②口口 |①---|
①口③④ |②---|
口口口口 |③---|
口口口口 |④---|
45
口口口口 |①---|
口口口口 |②---|
④口②口 |③---|
口③口① |④---|
46
①②口口 |①---|
口口③④ |②---|
口口口口 |③---|
口口口口 |④---|
47
口口②① |①---|
④③口口 |②---|
口口口口 |③---|
口口口口 |④---|
48
口口口口 |①---|
口口口口 |----|
口①①口 |----|
口口口口 |----|
49
口口口口 |①---|
口口口口 |----|
①口口① |----|
口口口口 |----|
50
口口口口 |①---|
①口口① |----|
口口口口 |----|
口口口口 |----|
51
口口口口 |①---|
口①①口 |----|
口口口口 |----|
口口口口 |----|


不确定度: 0

最終更新:2012年11月14日 15:23