マスターピース
mihimaru GT

BASIC

Level: 3
BPM: 152
Notes: 179

1
口口口口 |----|
口口口口 |----|
口口口口 |----|
口口口口 |----|
2
口③②口 |①---|
口口口口 |②---|
口④①口 |③---|
口口口口 |④---|
3
口口口口 |①---|
口②①口 |----|
口口口口 |②---|
口口口口 |----|
4
口口口口 |①---|
口口口口 |②---|
②④口口 |③---|
③①①口 |④---|
5
口口口口 |①---|
口口口口 |②---|
口口④② |③---|
口①①③ |④---|
6
口口口口 |①---|
口②口口 |----|
口口口口 |②---|
口①①口 |----|
7
口口口口 |①---|
口口②口 |----|
口①①口 |②---|
口口口口 |----|
8
口口口口 |①---|
口口口口 |②---|
②④口口 |③---|
③①①口 |④---|
9
口口口口 |①---|
口口口口 |②---|
口口④② |③---|
口①①③ |④---|
10
口口口口 |①---|
口②口口 |----|
口口口口 |②---|
口①①口 |----|
11
口口口口 |①---|
口口②口 |----|
口①①口 |②---|
口口口口 |----|
12
口口口口 |①---|
口口口口 |----|
口①①口 |----|
口口口口 |----|
13
口口口口 |----|
口口口口 |----|
口口口口 |----|
口口口口 |----|
14
口口口口 |①---|
口①口口 |----|
口①口口 |----|
口口口口 |----|
15
口口口口 |①---|
口口①口 |----|
口口①口 |----|
口口口口 |----|
16
口口口口 |①---|
口口口口 |----|
口口口口 |----|
口①口口 |----|
17
口口口口 |①---|
口口口口 |----|
口口口口 |----|
口口①口 |----|
18
口口口口 |①---|
①②③④ |②---|
口口口口 |③---|
口口口口 |④---|
19
口口口口 |①---|
口口口口 |②---|
④③②① |③---|
口口口口 |④---|
20
口口口口 |①---|
①口口口 |----|
口口口口 |----|
口口口口 |----|
21
口口口口 |①---|
口口口① |----|
口口口口 |----|
口口口口 |----|
22
口口口口 |①---|
口口口口 |----|
口②口口 |②---|
口①①口 |----|
23
口②口口 |①---|
口①口口 |----|
口口口口 |②---|
口口口口 |----|
24
口口①口 |①---|
口口②口 |----|
口口口口 |②---|
口口口口 |----|
25
口口口口 |①---|
口口口口 |----|
口②①口 |②---|
口口口口 |----|
26
口口口口 |①---|
口口口口 |----|
口口②口 |②---|
口①①口 |----|
27
口口口口 |①---|
口口口口 |----|
②①口口 |②---|
口口口口 |----|
28
口口口口 |①---|
①②③④ |②---|
口口口口 |③---|
口口口口 |④---|
29
④③②① |①---|
口口口口 |②---|
口口口口 |③---|
口口口口 |④---|
30
口口口口 |①---|
①②③④ |②---|
口口口口 |③---|
口口口口 |④---|
31
口口口口 |①---|
口口口口 |----|
口①①口 |----|
口口口口 |----|
32
口口口口 |①---|
③①①口 |②---|
口②④口 |③---|
口口口口 |④---|
33
口口口口 |①---|
口②②① |----|
口口口口 |②---|
口口口口 |----|
34
口口口口 |①---|
口口口口 |②---|
③①①口 |③---|
口②④口 |④---|
35
口口口口 |①---|
口口②口 |----|
口口口① |②---|
口口口口 |----|
36
口口口口 |①---|
口②口口 |----|
口①①口 |②---|
口口口口 |----|
37
口口口口 |①---|
口口②口 |----|
口①口口 |②---|
口口口口 |----|
38
口口口口 |①---|
口口口口 |----|
口②①口 |②---|
口口口口 |----|
39
口口口口 |①---|
口口口口 |②---|
①②③④ |③---|
口口口口 |④---|
40
口口口口 |①---|
③①①口 |②---|
口②④口 |③---|
口口口口 |④---|
41
口口口口 |①---|
口②②① |----|
口口口口 |②---|
口口口口 |----|
42
口口口口 |①---|
口口口口 |②---|
③①①口 |③---|
口②④口 |④---|
43
口口口口 |①---|
口口②口 |----|
口口口① |②---|
口口口口 |----|
44
口口口口 |①---|
口②口口 |----|
口①①口 |②---|
口口口口 |----|
45
口口口口 |①---|
口口②口 |----|
口①口口 |②---|
口口口口 |----|
46
口口口口 |①---|
口口②口 |----|
口口①口 |②---|
口口口口 |----|
47
口口口口 |①---|
口①口口 |----|
口②②口 |②---|
口口口口 |----|
48
口口口口 |①---|
口①①口 |----|
口口口口 |----|
口口口口 |----|
49
口口口口 |①---|
口口口口 |----|
口①①口 |----|
口口口口 |----|
50
口口口口 |①---|
口口口口 |----|
①口口① |----|
口口口口 |----|
51
口口口口 |①---|
①口口① |----|
口口口口 |----|
口口口口 |----|
52
口口口口 |①---|
口口口口 |②---|
②④口口 |③---|
③①①口 |④---|
53
口口口口 |①---|
口口口口 |②---|
口口④② |③---|
口①①③ |④---|
54
口口口口 |①---|
口②口口 |----|
口口口口 |②---|
口①①口 |----|
55
口口口口 |①---|
口口②口 |----|
口①①口 |②---|
口口口口 |----|
56
口口口口 |①---|
口口口口 |②---|
②④口口 |③---|
③①①口 |④---|
57
口口口口 |①---|
口口口口 |②---|
口口④② |③---|
口①①③ |④---|
58
口口口口 |①---|
口②口口 |----|
口口口口 |②---|
口①①口 |----|
59
口口口口 |①---|
口口②口 |----|
口①①口 |②---|
口口口口 |----|
60
口口口口 |①---|
口②②口 |----|
口①①口 |----|
口口口口 |②---|


不确定度: 0

最終更新:2012年11月14日 15:22