キャッチーを科学する
アルカラ

EXTREME

Level: 8
BPM: 148
Notes: 659

全程BPM在148附近飄忽不定
1
口口口口 |----|
口口口口 |----|
口口口口 |----|
口口口口 |----|
2
口口④② |①--②|
口⑤口口 |-③--|
③⑦⑥口 |④-⑤-|
①口口口 |⑥-⑦-|
3
②④口口 |①--②|
口口⑤口 |-③--|
口⑥口③ |④-⑤-|
口口口① |⑥---|
4
口口④口 |①--②|
口⑤口② |-③--|
③⑦⑥口 |④-⑤-|
①①口口 |⑥-⑦-|
5
②④口口 |①--②|
口口⑤口 |-③--|
口⑥口③ |④-⑤-|
口口口① |⑥---|
6
口口④② |①--②|
口⑤口口 |-③--|
③⑦⑥口 |④-⑤-|
①①①口 |⑥-⑦-|
7
②④口口 |①--②|
口口⑤口 |-③--|
口⑥口③ |④-⑤-|
口口口① |⑥---|
8
口口④② |①--②|
口⑤口口 |-③--|
③⑦⑥口 |④-⑤-|
①①①① |⑥-⑦-|
9
②口口② |①-②-|
①口口① |-③--|
③口口③
口口口口

口口口口
⑤口口⑤
口口口口 |④---|
④④④④ |⑤---|
10
口②口⑤ |①②③④|
⑥①④⑨ |--⑤-|
⑤口③⑦ |⑥-⑦-|
⑧口口口 |⑧-⑨-|
11
④口口④ |①-②③|
⑦⑦③口 |--④-|
口②⑥⑥ |⑤-⑥-|
⑤⑤口① |⑦---|
12
⑧④口⑧ |①②③④|
⑤口②⑦ |--⑤-|
⑥③口⑤ |⑥-⑦-|
口口①口 |⑧---|
13
口口口口 |①-②③|
口③口④ |--④-|
口口②口
①口口口

口口口口
⑤口口口
口口口⑦ |⑤-⑥-|
⑦口⑥⑤ |⑦---|
14
口②口⑤ |①②③④|
⑥①④⑨ |--⑤-|
⑤口③⑦ |⑥-⑦-|
⑧口口口 |⑧-⑨-|
15
④口口④ |①-②③|
⑦⑦③口 |--④-|
口②⑥⑥ |⑤-⑥-|
⑤⑤口① |⑦---|
16
⑧④口⑧ |①②③④|
口口②⑦ |--⑤-|
⑥③口口 |⑥-⑦-|
口口①⑤ |⑧---|
17
口口口口 |①-②③|
口③口④ |--④-|
口口②口
①口口口

口口口口
⑤口口口
口口口⑦ |⑤-⑥-|
⑦口⑥⑤ |⑦---|
18
①口口口 |①②③-|
④②口口 |④⑤⑥-|
口⑤③口
口口⑥口

⑨口口⑦
口口口⑨
口口口口 |⑦-⑧-|
⑧口口⑧ |--⑨-|
19
⑧⑧①⑦ |①②③-|
口②⑥口 |④-⑤⑥|
④口③⑤ |⑦-⑧-|
口口口口 |----|
20
⑦口①④ |①②③-|
口②⑤口 |④⑤⑥-|
③⑥⑩口 |⑦-⑧-|
⑧⑨口⑧ |--⑨⑩|
21
②口②口 |①---|
口口口① |②---|
口③口③ |③---|
④口④口 |④---|
22
①⑧口⑧ |①②③④|
④②口口 |⑤-⑥-|
口⑤③口 |⑦-⑧-|
⑦口口⑥ |----|
23
⑦口①⑧ |①②③④|
口②口口 |⑤-⑥-|
⑤口③⑥ |⑦-⑧-|
口④口口 |----|
24
⑦口①口 |①②③-|
口②④口 |④⑤⑥-|
③⑤⑩口 |⑦-⑧-|
⑥⑨⑧⑧ |--⑨⑩|
25
口口口口 |①---|
口口口① |②---|
口②口②
口口口口

③口③口
⑤④⑤④
口口口口 |③---|
口口口口 |④-⑤-|
26
⑦⑥③⑦ |①--②|
⑤口口⑤ |--③-|
口口④② |④-⑤-|
①①①① |⑥-⑦-|
27
口口口口 |①--②|
⑤②④⑤ |--③-|
口口口③ |④-⑤-|
⑦⑥①⑦ |⑥-⑦-|
28
⑦⑥③⑦ |①--②|
⑤口口⑤ |--③-|
口①④② |④-⑤-|
口口口口 |⑥-⑦-|
29
口⑦③口 |①--②|
口口⑥口 |--③-|
⑤口口② |④-⑤-|
口①④口 |⑥-⑦-|
30
⑥口口⑤ |①②-③|
口口口口 |④-⑤-|
口④②口 |⑥-⑦-|
③①口⑦ |----|
31
口口口口 |①②③④|
口口口口 |⑤⑥⑦-|
⑤②⑦④ |----|
①⑥③口 |----|
32
⑥⑦⑧口 |①-②-|
⑤口口⑤ |③-④-|
口⑧⑦⑥ |⑤-⑥-|
①③④② |⑦-⑧-|
33
⑥口口⑥ |①-②-|
③②①⑤ |③-④-|
④口口④ |⑤---|
⑤①②③ |⑥---|
34
口⑦⑧口 |①-②-|
⑥⑤口口 |③-④-|
口③④口 |⑤-⑥-|
口口②① |⑦-⑧-|
35
⑦⑧口口 |①-②-|
口口⑤⑥ |③-④-|
口④③口 |⑤-⑥⑦|
①②口口 |⑧---|
36
口⑩⑨口 |①②③-|
③③⑧⑧ |④-⑤-|
④⑦②⑤ |⑥⑦⑧-|
①①⑥⑥ |⑨-⑩-|
37
口⑤④② |①-②-|
①③口口 |③---|
⑤口②④ |④---|
③①口口 |⑤---|
38
口口口③ |①-②-|
⑧③口⑤ |③-④-|
⑥②口⑦ |⑤-⑥-|
①④①① |⑦-⑧-|
39
①①④① |①-②-|
⑦口②⑥ |③-④-|
⑤口③⑦ |⑤-⑥-|
③口口口 |⑦---|
40
口口口③ |①-②-|
⑧③口⑤ |③-④-|
⑥②口⑦ |⑤-⑥-|
①④①① |⑦-⑧-|
41
①①④① |①-②-|
⑥口②⑤ |③-④-|
⑤口③⑥ |⑤---|
③口口口 |⑥---|
42
口口⑧⑥ |①-②-|
口口②④ |③-④-|
⑦⑤口口 |⑤-⑥-|
①③口口 |⑦-⑧-|
43
①⑦口口 |①-②-|
③⑤口口 |③-④-|
⑧口②⑧ |⑤-⑥-|
口口④⑥ |⑦-⑧-|
44
口口口口 |①-②-|
口口④口 |③-④-|
口③②口
口①口口

口口口口
⑤口口⑤
口口口口 |⑤---|
口⑥⑥口 |⑥---|
45
①①①① |①---|
②口口② |--②-|
③口口③ |③---|
口口口口 |----|
46
⑨口⑧⑦ |①②-③|
⑤⑥口口 |④-⑤⑥|
口口④③ |-⑦⑧-|
①②口口 |⑨---|
47
⑦⑧⑨⑨ |①②-③|
口口⑥⑤ |④-⑤⑥|
③④口口 |-⑦⑧-|
口口②① |⑨---|
48
口口④口 |①--②|
口口③口 |--③-|
⑥口②口 |-④--|
⑤口①口 |⑤-⑥-|
49
口②口口 |①-②-|
①口③口 |③-④-|
⑥④口⑥ |⑤---|
⑤口口⑤ |⑥---|
50
④口口⑨ |①②③-|
①⑤口口 |④⑤⑥⑦|
口②⑥口 |⑧-⑨-|
⑧口③⑦ |----|
51
⑦⑦①口 |①②③④|
口②⑥④ |⑤-⑥⑦|
⑤口③口 |----|
口口口口 |----|
52
口口口口 |①-②-|
口口③③ |③-④-|
口②②口
①①④口

口⑥口⑥
口口口口
口口口⑤ |⑤-⑥-|
⑦⑦口口 |--⑦-|
53
②口②口 |①---|
口口①① |②---|
口③口③ |③---|
④口④口 |④---|
54
①⑨口⑨ |①②③④|
④②⑧⑩ |⑤-⑥⑦|
口⑤③口 |⑧-⑨-|
⑦口口⑥ |--⑩-|
55
⑦口①⑧ |①②③④|
口②口口 |⑤-⑥-|
⑤口③⑥ |⑦-⑧-|
口④口口 |----|
56
口⑦①口 |①②-③|
口②⑥口 |④⑤⑥⑦|
口⑤口口
④口③口

口口口口
⑩⑩口⑪
⑨口⑧⑧ |⑧-⑨-|
口口口口 |⑩-⑪-|
57
口口①① |①---|
口口口口 |----|
口口口口 |----|
口口口口 |----|
58
口口口③ |①-②-|
⑦③口⑤ |③-④-|
⑥②口⑦ |⑤-⑥-|
①④①① |⑦---|
59
①①口① |①-②-|
⑤口②④ |③---|
④口③⑤ |④---|
③口口口 |⑤---|
60
口口口③ |①-②-|
⑧③口⑤ |③-④-|
⑥②口⑦ |⑤-⑥-|
①④①① |⑦-⑧-|
61
①①④① |①-②-|
⑥口②⑤ |③-④-|
⑤口③⑥ |⑤---|
③口口口 |⑥---|
62
口口⑧⑥ |①-②-|
口口②④ |③-④-|
⑦⑤口口 |⑤-⑥-|
①③口口 |⑦-⑧-|
63
①⑦口口 |①-②-|
③⑤口口 |③-④-|
⑧口②⑧ |⑤-⑥-|
口口④⑥ |⑦-⑧-|
64
口口口口 |①-②-|
口口④口 |③-④-|
口③②口
口①口口

口口口口
⑤口口⑤
口口口口 |⑤---|
口⑥⑥口 |⑥---|
65
①①①① |①---|
口②口口 |--②-|
口口口口
口口口口

⑤⑤⑤⑤
口口口口
口口③口 |③---|
④口口④ |④-⑤-|
66
口口口口 |----|
②③③② |①-②-|
④①①④ |----|
口口口口 |③-④-|
67
②口④② |--①-|
口口口口 |②-③-|
口口①口 |----|
③③③③ |--④-|
68
①口口口 |①-②-|
口⑦②⑦ |③-④-|
⑥③口③ |--⑤-|
④口⑤口 |⑥-⑦-|
69
①口②口 |--①-|
口⑤⑥口 |②-③-|
④口口③ |④-⑤-|
⑦⑥⑤⑦ |⑥-⑦-|
70
①①①① |①---|
③口口③ |②-③-|
口②②口 |----|
④口口口 |--④-|
71
口口⑦⑦ |①-②-|
口③①⑥ |③-④-|
④口口④ |--⑤-|
口⑤口② |⑥-⑦-|
72
③③口口 |--①-|
②口口口 |②-③-|
口口口口
口口①口

口口口口
口⑤⑤口
④口口④ |--④-|
⑥⑥⑥⑥ |⑤-⑥-|


不確定度: 0

最終更新:2013年05月28日 15:04