Find your way
J.Speaks

EXTREME

Level: 8
BPM: 130
Notes: 620

1
口口口口 |----|
口口口口 |----|
口口口口 |----|
口口口口 |----|
2
口①口⑤ |①---|
②口④④ |②--③|
口①③③ |-④-⑤|
②口⑥口 |⑥---|
3
⑤口①口 |①---|
④④口② |②--③|
③③①口 |-④-⑤|
口⑥口② |⑥---|
4
口①口⑤ |①---|
②口④④ |②--③|
口①③③ |-④-⑤|
②口⑥口 |⑥---|
5
⑤口①口 |①---|
④④口② |②--③|
③③①口 |-④-⑤|
口⑥口② |⑥---|
6
口①②口 |①-②-|
③④口口 |③-④⑤|
口①⑤⑤
③口口口

口口口⑦
⑨口⑥⑥
⑨口口口 |-⑥-⑦|
口口⑧口 |⑧-⑨-|
7
口②①口 |①-②-|
口口④③ |③-④⑤|
⑤⑤①口
口口口③

⑦口口口
⑥⑥口⑨
口口口⑨ |-⑥-⑦|
口⑧口口 |⑧-⑨-|
8
口①②口 |①-②-|
③④口口 |③-④⑤|
口①⑤⑤
③口口口

口口口⑦
⑨口⑥⑥
⑨口口口 |-⑥-⑦|
口口⑧口 |⑧-⑨-|
9
口②①口 |①---|
③①②③ |②--③|
口②①口
口口口口

⑦⑦⑥⑥
口⑤口口
④口口④ |-④-⑤|
口口口口 |⑥-⑦-|
10
口口口口 |①-②-|
③④口③ |③-④⑤|
口①①口
②口⑤②

口口口口
口口⑦口
⑩⑧⑨⑩ |⑥⑦⑧⑨|
⑪⑥口⑪ |⑩-⑪-|
11
口④口口 |①-②-|
①③③① |③-④⑤|
口口⑤口
口②②口

口口⑦口
⑧口口口
口⑥口⑨ |⑥⑦⑧⑨|
⑩⑩⑪⑪ |⑩-⑪-|
12
①口口① |①-②-|
④②②口 |③-④⑤|
③口口③
口口口⑤

口⑧⑨口
口⑩⑩⑦
口口口口 |⑥⑦⑧⑨|
⑥⑪⑪口 |⑩-⑪-|
13
⑪⑩⑩⑪ |①-②-|
③④⑦③ |③-④⑤|
⑧①①⑨ |⑥⑦⑧⑨|
②⑥⑤② |⑩-⑪-|
14
口口口口 |①-②-|
③④口③ |③-④⑤|
口①①口
②口⑤②

口口口口
口口⑦口
⑩⑧⑨⑩ |⑥⑦⑧⑨|
⑪⑥口⑪ |⑩-⑪-|
15
口④口口 |①-②-|
①③③① |③-④⑤|
口口⑤口
口②②口

口口⑦口
⑧口口口
口⑥口⑨ |⑥⑦⑧⑨|
⑩⑩⑪⑪ |⑩-⑪-|
16
①口口① |①-②-|
④②②口 |③-④⑤|
③口口③
口口口⑤

口⑧⑨口
口⑩⑩⑦
口口口口 |⑥⑦⑧⑨|
⑥⑪⑪口 |⑩-⑪-|
17
①④④① |①-②-|
③口口③ |③-④-|
①②②①
③口口③

口口口口
口⑤⑤口
⑥⑥⑥⑥ |⑤---|
口⑤⑤口 |⑥---|
18
①④④③ |①-②-|
②口口③ |③-④-|
口口口口
口口口口

口口口口
⑥口⑤口
口口⑦⑥ |--⑤-|
口口口⑥ |⑥-⑦-|
19
口口口③ |①-②-|
口口口③ |③-④-|
①④口口
③口②口

口⑥口口
口⑤口口
口口口⑦ |⑤-⑥-|
⑧口口⑦ |⑦-⑧-|
20
①④⑦③ |①-②-|
②⑤⑧③ |③-④-|
③⑥口⑦ |⑤-⑥-|
口口口⑦ |⑦-⑧-|
21
口口口② |--①-|
③口口② |②-③-|
①②口口
口口口口

口④④口
口口口口
⑤口口⑤ |④---|
⑤口口⑤ |⑤---|
22
③⑩⑩① |①-②-|
③口②③ |③-④-|
⑨⑥④⑤ |⑤⑥⑦⑧|
⑨⑧口⑦ |⑨-⑩-|
23
②⑨⑨口 |--①-|
②口①② |②-③-|
⑧⑤③④ |④⑤⑥⑦|
⑧⑦口⑥ |⑧-⑨-|
24
②口口③ |--①-|
②口⑥② |②-③-|
⑥⑦⑤① |④-⑤-|
⑥口④口 |⑥-⑦-|
25
⑥③①⑥ |①-②-|
①⑤⑤③ |③-④-|
④⑤⑤② |⑤---|
口②④口 |⑥---|
26
⑧⑥②④ |①-②-|
⑥⑧④② |③-④-|
口口口口 |⑤-⑥-|
⑦⑤①③ |⑦-⑧-|
27
口⑥⑤口 |①---|
口④口口 |②---|
①②①② |③-④-|
口③③口 |⑤-⑥-|
28
⑥⑧④② |①-②-|
⑧⑥②④ |③-④-|
口口口口 |⑤-⑥-|
⑤⑦③① |⑦-⑧-|
29
口口口口 |①---|
口口口口 |②---|
①②①②
口口口口

口口口口
口⑤口口
④口口口 |③---|
口③③口 |④-⑤-|
30
②③口口 |①---|
口口口口 |②-③-|
口口①①
口口口口

口口④口
口口⑤口
口⑦⑥口 |④-⑤-|
口口口口 |⑥-⑦-|
31
口口口口 |①-②-|
口⑦⑥口 |③-④-|
口口⑤④ |⑤-⑥-|
口①②③ |⑦---|
32
口⑥⑥口 |--①-|
①口口口 |②-③-|
②口④④ |④---|
⑤③⑤口 |⑤--⑥|
33
口口口口 |--①-|
口口口口 |②-③-|
①②①②
③口③口

口④④口
口口⑥口
口口⑤⑥ |④---|
口口口⑤ |⑤-⑥-|
34
口口③① |①---|
口④③① |②--③|
②口⑤口 |--④-|
口⑥②口 |⑤-⑥-|
35
②②口口 |①--②|
③⑤口③ |--③-|
⑤④口口 |----|
④口①① |④-⑤-|
36
①③口口 |①---|
①③口口 |②--③|
口口口②
口②口口

口口口口
⑤口口④
口口口⑥ |--④-|
口口口口 |⑤-⑥-|
37
口口③口 |①--②|
口②②③ |--③-|
③②②口
①③口口

口口口口
口口⑤口
口口④⑤ |----|
口口口④ |④-⑤-|
38
口口③① |①---|
口④③① |②--③|
②口⑤口 |--④-|
口⑥②口 |⑤-⑥-|
39
②②口口 |①--②|
③⑤口③ |--③-|
⑤④口口 |----|
④口①① |④-⑤-|
40
①③口口 |①---|
①③口口 |②--③|
口口口②
口②口口

⑤口口④
口口口⑥
口口口口 |--④-|
口口口口 |⑤-⑥-|
41
⑦⑦⑥⑥ |①-②-|
⑤④③⑤ |③-④-|
①③④② |⑤---|
①⑤⑤② |⑥-⑦-|
42
口口口口 |①-②-|
③④口③ |③-④⑤|
口①①口
②口⑤②

口口口口
口口⑦口
⑩⑧⑨⑩ |⑥⑦⑧⑨|
⑪⑥口⑪ |⑩-⑪-|
43
口④口口 |①-②-|
①③③① |③-④⑤|
口口⑤口
口②②口

口口⑦口
⑧口口口
口⑥口⑨ |⑥⑦⑧⑨|
⑩⑩⑪⑪ |⑩-⑪-|
44
①口口① |①-②-|
④②②口 |③-④⑤|
③口口③
口口口⑤

口⑧⑨口
口⑩⑩⑦
口口口口 |⑥⑦⑧⑨|
⑥⑪⑪口 |⑩-⑪-|
45
⑪⑩⑩⑪ |①-②-|
③④⑦③ |③-④⑤|
⑧①①⑨ |⑥⑦⑧⑨|
②⑥⑤② |⑩-⑪-|
46
口口口口 |①-②-|
③④口③ |③-④⑤|
口①①口
②口⑤②

口口口口
口口⑦口
⑩⑧⑨⑩ |⑥⑦⑧⑨|
⑪⑥口⑪ |⑩-⑪-|
47
口④口口 |①-②-|
①③③① |③-④⑤|
口口⑤口
口②②口

口口⑦口
⑧口口口
口⑥口⑨ |⑥⑦⑧⑨|
⑩⑩⑪⑪ |⑩-⑪-|
48
①口口① |①-②-|
④②②口 |③-④⑤|
③口口③
口口口⑤

口⑧⑨口
口⑩⑩⑦
口口口口 |⑥⑦⑧⑨|
⑥⑪⑪口 |⑩-⑪-|
49
①④④① |①-②-|
③口口③ |③-④-|
①②②①
③口口③

⑧口口⑦
口⑥⑤口
⑧口口⑦ |⑤-⑥-⑦-|
口⑥⑤口 |⑧---|

不確定度: 0

最終更新:2014年08月01日 00:00