Universe Universe
avengers in sci-fi

EXTREME

Level: 9
BPM: 180
Notes: 690

BPM: 177
1
口口口口 |----|
口口口口 |----|
口口口口 |----|
口口口口 |----|

BPM: 172
2
①口②口 |①---|
口口①口 |--②-|
①②②①
②口口口

口口口口
⑥⑤④口
口口口口 |----|
口③口③ |③④⑤⑥|

BPM: 178
3
②①口① |①---|
口④⑤⑥ |--②-|
②口②① |----|
③口③口 |③④⑤⑥|

BPM: 176
4
口①①口 |①---|
②⑥⑤④ |--②-|
③口②口 |----|
③口口② |③④⑤⑥|

BPM: 180
5
①②口口 |①---|
④⑤⑥口 |--②-|
口口②③ |----|
口口②③ |③④⑤⑥|

BPM: 178
6
②口②① |①---|
⑥⑤④② |--②-|
②①口口 |----|
口③口③ |③④⑤⑥|
7
②口②② |①---|
口④⑤⑥ |--②-|
口口①① |----|
③口③口 |③④⑤⑥|

BPM: 174
8
口口口② |①---|
口口口口 |--②-|
①①口② |----|
③②口③ |③---|

BPM: 184
9
①⑦②⑧ |①②③④|
③⑨④⑩ |⑤⑥⑦⑧|
⑤⑪⑥⑫ |⑨⑩⑪⑫|
⑮⑬⑯⑭ |⑬⑭⑮⑯|

BPM: 180
10
④③⑥⑥ |①-②-|
①⑤③口 |③---|
口口②口 |④-⑤-|
口口口口 |⑥---|
11
口口口口 |①---|
③口口口 |②---|
②口④口 |③-④-|
⑤⑤①① |⑤---|
12
①口口① |①---|
口口⑤② |②---|
口口⑤口 |③-④-|
口④③③ |⑤---|
13
口口口口 |①---|
口口口② |②---|
①①⑤口 |③-④-|
④⑤口③ |⑤---|
14
④③⑥⑥ |①-②-|
①⑤口口 |③---|
口②口口 |④-⑤-|
口口口口 |⑥---|
15
口口口口 |①---|
③口口口 |②---|
②口口④ |③-④-|
⑤⑤①① |⑤---|
16
口①口① |①---|
口③③② |②---|
口④⑤⑤ |③-④-|
口口口口 |⑤---|
17
口口口口 |①-②-|
⑤口口口 |③-④⑤|
④口口口
②③口①

口⑦口⑥
口⑨口⑧
口⑪口⑩ |⑥⑦⑧⑨|
⑬口口⑫ |⑩⑪⑫⑬|
18
①口⑥口 |①-②-|
④口③⑥ |③---|
口⑤②口 |④-⑤-|
口口口口 |⑥---|
19
口口口口 |①---|
口③口口 |②---|
②口口④ |③-④-|
⑤⑤①① |⑤---|
20
①③③① |①---|
口口④② |②---|
口口⑤⑤ |③-④-|
口口口口 |⑤---|
21
口口口口 |①---|
口口口② |②---|
①①⑤口 |③-④-|
④⑤口③ |⑤---|
22
①口③口 |①-②-|
④②⑥⑥ |③---|
口⑤口口 |④-⑤-|
口口口口 |⑥---|
23
口③口口 |①---|
口③④口 |②---|
②口口口 |③-④-|
⑤⑤①① |⑤---|
24
口口①① |①---|
口口口② |②---|
口③③口 |③-④-|
⑤⑤④口 |⑤---|
25
①⑦②⑧ |①②③④|
③⑨④⑩ |⑤⑥⑦⑧|
⑤⑪⑥⑫ |⑨⑩⑪⑫|
⑮⑬⑯⑭ |⑬⑭⑮⑯|
26
口口⑤⑤ |①---|
①③③口 |②-③-|
口口②口 |--④-|
口口口④ |⑤---|
27
①①口④ |--①-|
口②口④ |--②-|
口口口口 |③-④-|
③口口⑤ |⑤---|
28
③口③口 |①---|
口②口口 |②-③-|
④口⑤口 |--④-|
口①①⑤ |⑤---|
29
口口⑤⑤ |①-②-|
③口④口 |③---|
口②口口 |④---|
①口口口 |⑤---|
30
①①⑤口 |①---|
口②口⑤ |②-③-|
口口③③ |--④-|
口④口口 |⑤---|
31
①口口口 |--①-|
口①⑤口 |②-③-|
口③④④ |④---|
口口口② |--⑤-|
32
口口②口 |--①-|
口①④口 |②---|
口②口口 |--③-|
口口③口 |④---|
33
④⑥口⑤ |①-②③|
①⑧口⑦ |④-⑤⑥|
②⑩③⑨ |⑦⑧⑨⑩|
⑭⑫⑬⑪ |⑪⑫⑬⑭|
34
口口⑤⑤ |①---|
①③③口 |②-③-|
口口②口 |--④-|
口口口④ |⑤---|
35
①①口④ |--①-|
口②口④ |--②-|
口口口口 |③-④-|
③口口⑤ |⑤---|
36
③口③口 |①---|
口②口口 |②-③-|
④口⑤口 |--④-|
口①①⑤ |⑤---|
37
口口⑤⑤ |①-②-|
③口④口 |③---|
口②口口 |④---|
①口口口 |⑤---|
38
①①⑤口 |①---|
口②口⑤ |②-③-|
口口③③ |--④-|
口④口口 |⑤---|
39
①口口口 |--①-|
口①⑥口 |②-③-|
口③④④ |④---|
⑤口口② |⑤-⑥-|
40
口口②口 |--①-|
口①口口 |②---|
口②④口 |--③-|
口口③口 |④---|
41
⑥口⑦口 |①-②③|
口①口口 |④⑤⑥⑦|
口②口③
口④口⑤

口口口口
⑧⑬⑨口
⑩口⑪口 |⑧⑨⑩⑪|
⑫口口口 |⑫-⑬-|
42
口①④口 |①---|
口⑦③口 |②-③-|
口口⑥口 |④-⑤-|
口⑤②口 |⑥-⑦-|
43
口①口口 |①---|
②口口② |②-③-|
④口⑥④ |④-⑤-|
⑤⑥口③ |⑥---|
44
②①口③ |①---|
③口①② |②---|
⑤口口④ |③-④-|
口口⑥口 |⑤-⑥-|
45
口口口口 |①---|
口②口④ |②---|
口口①口 |③---|
③口口口 |④---|
46
口①④口 |①---|
口⑦③口 |②-③-|
口口⑥口 |④-⑤-|
口⑤②口 |⑥-⑦-|
47
口①口口 |①---|
②口口② |②-③-|
④口⑥④ |④-⑤-|
⑤⑥口③ |⑥---|
48
②①口③ |①---|
③口①② |②---|
⑥口口④ |③-④-|
口口⑤口 |⑤-⑥-|
49
口口口口 |①---|
口②口口 |②---|
口口①口 |③---|
口③口④ |④---|
50
①⑦②⑧ |①②③④|
③⑨④⑩ |⑤⑥⑦⑧|
⑤⑪⑥⑫ |⑨⑩⑪⑫|
⑮⑬⑯⑭ |⑬⑭⑮⑯|
51
④③⑥⑥ |①-②-|
①⑤③口 |③---|
口口②口 |④-⑤-|
口口口口 |⑥---|
52
口口口口 |①---|
口口④口 |②---|
②口口③ |③-④-|
⑤⑤①① |⑤---|
53
①口口① |①---|
④③③② |②---|
口口⑤⑤ |③-④-|
口口口口 |⑤---|
54
口口口口 |①---|
口口口② |②---|
①①⑤口 |③-④-|
④⑤口③ |⑤---|
55
④③⑥⑥ |①-②-|
①⑤口口 |③---|
口②口口 |④-⑤-|
口口口口 |⑥---|
56
口③口口 |①---|
口口口口 |②---|
②口④口 |③-④-|
⑤⑤①① |⑤---|
57
①口口① |①---|
口口口② |②---|
口⑤口⑤ |③-④-|
口④③③ |⑤---|
58
①⑦②⑧ |①②③④|
③⑨④⑩ |⑤⑥⑦⑧|
⑤⑪⑥⑫ |⑨⑩⑪⑫|
⑮⑬⑯⑭ |⑬⑭⑮⑯|
59
①③口口 |①-②-|
④口⑥⑥ |③---|
口⑤②口 |④-⑤-|
口口口口 |⑥---|
60
③口口口 |①---|
口口口口 |②---|
②口口④ |③-④-|
⑤⑤①① |⑤---|
61
口口①① |①---|
口口口② |②---|
口口⑤⑤ |③-④-|
口④③③ |⑤---|
62
口口口口 |①---|
口口口② |②---|
①①⑤口 |③-④-|
④⑤口③ |⑤---|
63
①口③口 |①-②-|
④②⑥⑥ |③---|
口⑤口口 |④-⑤-|
口口口口 |⑥---|
64
口口口口 |①---|
口口④口 |②---|
②口③口 |③-④-|
⑤⑤①① |⑤---|
65
①口口① |①---|
口口口② |②---|
口③③口 |③-④-|
⑤⑤④口 |⑤---|
66
①⑦②⑧ |①②③④|
③⑨④⑩ |⑤⑥⑦⑧|
⑤⑪⑥⑫ |⑨⑩⑪⑫|
⑮⑬⑯⑭ |⑬⑭⑮⑯|
67
口口⑤⑤ |①---|
①③③口 |②-③-|
口口②口 |--④-|
口口口④ |⑤---|
68
①①口④ |--①-|
口②口④ |--②-|
口口口口 |③-④-|
③口口⑤ |⑤---|
69
③口③口 |①---|
口②口口 |②-③-|
④口⑤口 |--④-|
口①①⑤ |⑤---|
70
口口⑤⑤ |①-②-|
③口④口 |③---|
口②口口 |④---|
①口口口 |⑤---|
71
①①⑤口 |①---|
口②口⑤ |②-③-|
口口③③ |--④-|
口④口口 |⑤---|
72
①口口口 |--①-|
口①⑥口 |②-③-|
口③④④ |④---|
口⑤口② |⑤-⑥-|
73
口口②口 |--①-|
口①④口 |②---|
口②口口 |--③-|
口口③口 |④---|
74
④⑥口⑤ |①-②③|
①⑧口⑦ |④-⑤⑥|
②⑩③⑨ |⑦⑧⑨⑩|
⑭⑫⑬⑪ |⑪⑫⑬⑭|
75
口口⑤⑤ |①---|
①③③口 |②-③-|
口口②口 |--④-|
口口口④ |⑤---|
76
①①口④ |--①-|
口②口④ |--②-|
口口口口 |③-④-|
③口口⑤ |⑤---|
77
③口③口 |①---|
口②口口 |②-③-|
④口⑤口 |--④-|
口①①⑤ |⑤---|
78
口口⑤⑤ |①-②-|
③口④口 |③---|
口②口口 |④---|
①口口口 |⑤---|
79
①①⑤口 |①---|
口②口⑤ |②-③-|
口口③③ |--④-|
口④口口 |⑤---|
80
①口口口 |--①-|
口①⑥口 |②-③-|
口③④④ |④---|
⑤口口② |⑤-⑥-|
81
口口②口 |--①-|
口①口口 |②---|
口②口口 |--③-|
口④③口 |④---|
82
①⑦②⑧ |①②③④|
③⑨④⑩ |⑤⑥⑦⑧|
⑤⑪⑥⑫ |⑨⑩⑪⑫|
⑮⑬⑯⑭ |⑬⑭⑮⑯|
83
①口②② |①---|
①③③② |--②-|
口③③口 |----|
口口口口 |③---|


不確定度: 0

最終更新:2013年05月28日 15:12