ダンデライオン

ADVANCED

Level: 6
BPM: 128-152
Notes: 404

BPM: 122.5
1
口口口口 |----|
口口口口 |----|
口口口口 |----|
口口口口 |----|

BPM: 128
2
②①①口 |①---|
口③口口 |②-③-|
口口④口 |④-⑤-|
⑥口口⑤ |⑥---|

BPM: 130-140
3
口口口① |①-②-|
口口②口 |③-④-|
口③口口 |⑤---|
④口口⑤ |----|
4
②①①口 |①---|
口③口口 |②-③-|
口口④口 |④-⑤-|
⑥口口⑤ |⑥---|

BPM: 145-159
5
口口口① |①-②-|
口口②口 |③-④-|
口③口口 |⑤---|
④口口⑤ |----|

BPM: 150-161飘忽不定至曲终
6
①口口口 |①---|
口③口口 |②---|
口口②口 |③---|
口口口④ |④---|
7
口口⑤口 |①---|
口④②口 |②---|
口①③口 |③-④-|
口口口口 |⑤---|
8
①口口口 |①---|
口③口口 |②---|
口口②口 |③---|
口口口④ |④---|
9
口⑤⑤口 |①---|
口口④口 |②-③-|
口③口口 |④---|
①口②口 |⑤---|
10
口口口① |①---|
口口③口 |②---|
口②口口 |③---|
④口口口 |④---|
11
口⑤口口 |①---|
口②④口 |②---|
口③①口 |③-④-|
口口口口 |⑤---|
12
口口口① |①---|
口口③口 |②---|
口②口口 |③---|
④口口口 |④---|
13
口⑤⑤口 |①---|
口④口口 |②-③-|
口口③口 |④---|
口②口① |⑤---|
14
③口口③ |①-②-|
口口口口 |----|
②口口② |----|
①④口① |③-④-|
15
口口口口 |①-②-|
口⑥⑤④ |③-④-|
口口⑦③ |⑤-⑥-|
口口①② |--⑦-|
16
④⑤⑥口 |①-②-|
③口口口 |③-④-|
②①口口 |⑤-⑥-|
口⑦口口 |--⑦-|
17
口口口口 |①-②-|
⑧口⑦④ |③-④-|
口⑥②③ |⑤-⑥-|
⑤口①口 |⑦-⑧-|
18
口①②口 |①---|
口③口口 |②-③-|
④口口口 |④---|
口⑤口口 |--⑤-|
19
口⑤口口 |①-②-|
口口④③ |--③-|
口口⑥口 |④--⑤|
口口①② |--⑥-|
20
③④⑤口 |①---|
②口口口 |②-③-|
口①口口 |④-⑤-|
口⑥口口 |--⑥-|
21
口口口⑧ |①-②-|
口口⑦④ |③-④-|
口⑥②③ |⑤-⑥-|
⑤口①口 |⑦-⑧-|
22
口②③口 |①-②-|
①④口口 |③-④-|
⑤口口口 |⑤---|
口口⑦⑥ |⑥-⑦-|
23
口口口口 |①-②-|
口口口④ |③-④-|
口口口③
②①口口

口口口⑤
口口口口
口口口口 |⑤---|
口⑥⑦口 |⑥-⑦-|
24
⑤口口口 |①-②-|
④口口口 |③-④-|
③口⑦口 |⑤---|
②⑥口① |⑥-⑦-|
25
口②②口 |①---|
口①③口 |②---|
口④口口 |③-④-|
口⑥⑤口 |⑤-⑥-|
26
口口口口 |①-②-|
口②口口 |----|
③口①口 |----|
④口口口 |③-④-|
27
口口口口 |①---|
④口③③ |②---|
⑤口②② |③---|
口①口口 |④-⑤-|
28
⑤口口口 |①-②-|
口口④④ |③---|
口口③③ |④---|
①②口口 |--⑤-|
29
口口口口 |①-②-|
①口口⑧ |③-④-|
②口口⑦ |⑤-⑥-|
③④⑤⑥ |⑦-⑧-|
30
口②②① |①---|
口③③口 |②---|
口④口口 |③---|
口口⑤口 |④-⑤-|
31
③③口口 |①---|
口④②② |②---|
口口⑤口 |③--④|
口①口口 |--⑤-|
32
口口口口 |①---|
口口口口 |②-③-|
③口口③
②①口②

口口口口
④口口④
口口⑤口 |④---|
口⑥口口 |⑤-⑥-|
33
口口④④ |①---|
②②口口 |②---|
口口③③ |③---|
口口①口 |④---|
34
口口口口 |①--②|
⑥口①口 |--③-|
⑤②口口 |④---|
③口④口 |⑤-⑥-|
35
①口口口 |①---|
口⑥口④ |②-③-|
口⑤口③ |④---|
口口口② |⑤-⑥-|
36
口①口口 |①---|
口口②口 |②-③-|
口⑥③口 |④---|
⑤口④口 |⑤-⑥-|
37
③口口② |①-②-|
口④①口 |--③-|
口口⑤口 |④-⑤-|
⑦口口⑥ |⑥-⑦-|
38
口口口① |①---|
②③③② |②---|
②③③② |③---|
口口口口 |----|
39
口口口口 |----|
口口口口 |----|
口口口口 |----|
口①口口 |--①-|
40
口口口口 |①-②-|
口⑥⑤④ |③-④-|
口口⑦③ |⑤-⑥-|
口口①② |--⑦-|
41
④⑤⑥口 |①-②-|
③口口口 |③-④-|
②①口口 |⑤-⑥-|
口⑦口口 |--⑦-|
42
口口口⑧ |①-②-|
口口⑦④ |③-④-|
口⑥②③ |⑤-⑥-|
⑤口①口 |⑦-⑧-|
43
①口②口 |①---|
口③口口 |②-③-|
④口口口 |④---|
口⑤口口 |--⑤-|
44
口口口口 |①-②-|
口⑥⑤④ |③-④-|
口口⑦③ |⑤-⑥-|
口口①② |--⑦-|
45
④⑤⑥口 |①-②-|
③口口口 |③-④-|
②①口口 |⑤-⑥-|
口⑦口口 |--⑦-|
46
口口口⑧ |①-②-|
口口⑦④ |③-④-|
口⑥②③ |⑤-⑥-|
⑤口①口 |⑦-⑧-|
47
口②③口 |①-②-|
①④口口 |③-④-|
⑤口口口 |⑤---|
口⑦⑥口 |⑥-⑦-|
48
口口口⑤ |①-②-|
口口口④ |③-④-|
口口口③ |⑤---|
①⑥⑦② |⑥-⑦-|
49
⑤口口口 |①-②-|
④口口口 |③-④-|
③口⑦口 |⑤---|
②⑥口① |⑥-⑦-|
50
口②②口 |①---|
口①③口 |②---|
口④口口 |③-④-|
口⑥⑤口 |⑤-⑥-|
51
口口口口 |①-②-|
口②口口 |----|
口口①③ |----|
口口口④ |③-④-|
52
口口口口 |①---|
③③口口 |②---|
②②口④ |③---|
口口①⑤ |④-⑤-|
53
口口口④ |①---|
③③口口 |②---|
②②口口 |③---|
口口①口 |--④-|
54
口口口口 |①-②-|
⑧口口① |③-④-|
⑦口口② |⑤-⑥-|
⑥⑤④③ |⑦-⑧-|
55
①②②口 |①---|
口③③口 |②---|
口④口口 |③---|
口口⑤口 |④-⑤-|
56
③③口口 |①---|
口④②② |②---|
口口⑤口 |③--④|
口①口口 |--⑤-|
57
口口口口 |①---|
口口口口 |②-③-|
③口口③
②①口②

口口口口
④口口④
口口⑤口 |④---|
口⑥口口 |⑤-⑥-|
58
口口④④ |①---|
②②口口 |②---|
口口③③ |③---|
口口①口 |④---|
59
口口口口 |①--②|
⑥口①口 |--③-|
⑤②口口 |④---|
③口④口 |⑤-⑥-|
60
①口口口 |①---|
口⑥口④ |②-③-|
口⑤口③ |④---|
口口口② |⑤-⑥-|
61
口①口口 |①---|
口口②口 |②-③-|
口⑥③口 |④---|
⑤口④口 |⑤-⑥-|
62
③口口② |①-②-|
口④①口 |--③-|
口口⑤口 |④-⑤-|
⑦口口⑥ |⑥-⑦-|
63
④口口③ |①-②-|
口口②口 |③-④-|
口①口口
口口口口

口口口口
⑤口口⑤
⑤⑥⑥⑤ |⑤---|
口⑥⑥口 |⑥---|


不确定度: 0

最終更新:2012年11月11日 22:56