コネクト
BASIC
Level: 4
BPM: 175
Notes: 207
1
口口口口 |----|
口口口口 |----|
口口口口 |----|
口口口口 |----|
2
口口口口 |----|
口口口口 |----|
口口口口 |①---|
口①口口 |----|
3
口口口口 |①---|
口②口口 |----|
口口①① |②---|
口口口口 |----|
4
②口①① |①---|
口口口口 |----|
口口口口 |②---|
口口口口 |----|
5
口口口口 |①---|
①②②① |----|
口口口口 |②---|
口口口口 |----|
6
口口口口 |①---|
口口口口 |②---|
口①口③ |③---|
口口②口 |----|
7
口口口口 |①---|
口口②口 |----|
①①口口 |②---|
口口口口 |----|
8
①①口② |①---|
口口口口 |----|
口口口口 |②---|
口口口口 |----|
9
口口口口 |①---|
口④④口 |----|
①③③① |--②-|
口②②口 |③-④-|
10
口口口口 |----|
口口口口 |----|
口口口口 |----|
口口口口 |----|
11
口口口口 |①---|
①口口口 |----|
口①口口 |----|
口口口口 |----|
12
口②②① |①---|
口口①口 |----|
口口口口 |②---|
口口口口 |----|
13
口口口口 |①---|
口口口口 |②---|
①②③④ |③---|
口口口口 |④---|
14
口口口口 |①---|
口口①口 |----|
口口口口 |----|
口口口口 |----|
15
口口口口 |①---|
口口口① |----|
口口①口 |----|
口口口口 |----|
16
①②②口 |①---|
口①口口 |----|
口口口口 |②---|
口口口口 |----|
17
口口口口 |①---|
口口口口 |②---|
④③②① |③---|
口口口口 |④---|
18
②口口② |①---|
口①口口 |----|
口口口口 |②---|
口口口口 |----|
19
口口口口 |----|
口口口口 |①---|
口①口口 |----|
口口口口 |----|
20
口口口口 |①---|
口口①口 |----|
口②口口 |②---|
口口口口 |----|
21
口口口口 |①---|
口④①口 |②---|
口③②口 |③---|
口口口口 |④---|
22
口口口口 |①---|
口口①口 |----|
口口口口 |----|
口口口口 |----|
23
口口口口 |①---|
口口口口 |----|
口口①口 |----|
口口口口 |----|
24
口口口口 |①---|
口①口口 |----|
口口②口 |②---|
口口口口 |----|
25
口口口口 |①---|
口①②口 |②---|
口④③口 |③---|
口口口口 |④---|
26
口口口口 |①---|
口①②口 |②---|
口口③口 |③---|
口口口口 |----|
27
口口口口 |----|
口口口口 |①---|
①口口口 |----|
口口口口 |----|
28
口口口口 |①---|
口口口① |----|
口②口口 |②---|
口口口口 |----|
29
口口口口 |①---|
口④①口 |②---|
口③②口 |③---|
口口口口 |④---|
30
口口口口 |①---|
口口①口 |----|
口口口口 |----|
口口口口 |----|
31
口口口口 |①---|
口口口口 |----|
口口口① |----|
口口口口 |----|
32
口口口口 |①---|
①口口口 |----|
口口②口 |②---|
口口口口 |----|
33
口口口口 |①---|
口①②口 |②---|
口④③口 |③---|
口口口口 |④---|
34
口口口口 |①---|
口①口口 |----|
口②②口 |----|
口口口口 |②---|
35
口口口口 |①---|
口口口口 |----|
①口口① |----|
口口口口 |----|
36
口口口口 |①---|
①口口① |----|
口③口口 |②---|
口②口口 |③---|
37
口②②口 |①---|
口口①口 |----|
口口口口 |②---|
口口口口 |----|
38
①②②① |①---|
口口口口 |----|
口口口口 |----|
口口口口 |②---|
39
①口口① |①---|
口口②口 |----|
口口口口 |②---|
口口口口 |----|
40
口口口口 |①---|
口口口口 |----|
口①口口 |②---|
口③②口 |③---|
41
口口口口 |①---|
口②口口 |----|
口口①口 |②---|
口口口口 |----|
42
①口口① |①---|
口口口口 |----|
口②②口 |----|
口口口口 |②---|
43
口口口口 |①---|
口口口口 |----|
①口口① |----|
口口口口 |----|
44
口口口口 |①---|
①口口① |----|
口口③口 |②---|
口口②口 |③---|
45
口②②口 |①---|
口①口口 |----|
口口口口 |②---|
口口口口 |----|
46
①口口① |①---|
②③口口 |----|
口口口口 |②---|
口口口口 |③---|
47
口口口③ |①---|
口口①② |②---|
口口口④ |③---|
口口口口 |④---|
48
口口口口 |①---|
口口口口 |②---|
③②①口 |③---|
④口口口 |④---|
49
口口口口 |①---|
口口口口 |----|
口口口口 |----|
口①①口 |----|
50
口口口口 |①---|
口口口口 |----|
口口②② |②---|
①口口① |----|
51
口口②② |①---|
口①口口 |----|
口口口口 |②---|
口口口口 |----|
52
①口口口 |①---|
②口口② |----|
口口口口 |②---|
口口口口 |----|
53
口口口口 |①---|
口①①口 |----|
②口口口 |②---|
口口口口 |----|
54
口口口口 |①---|
口口口口 |②---|
口口③口 |③---|
口②①口 |----|
55
口口口口 |①---|
口口②口 |----|
①①口口 |②---|
口口口口 |----|
56
①①口② |①---|
口口口口 |----|
口口口口 |②---|
口口口口 |----|
57
口口口口 |①---|
①④④① |----|
口③③口 |--②-|
口②②口 |③-④-|
58
口口口口 |----|
口口口① |----|
口口口口 |①---|
口口口口 |----|
59
②口①① |①---|
口口口口 |----|
口口口口 |②---|
口口口口 |----|
60
③④④③ |①---|
①②②① |--②-|
口口口口 |--③-|
口口口口 |--④-|
61
口口口口 |----|
口①口口 |----|
口口口口 |①---|
口口口口 |----|
62
口口口口 |①---|
口口口口 |②---|
②③③② |③---|
①④④① |④---|
63
口口口口 |①---|
口①①口 |----|
口②口口 |②---|
口口③口 |③---|
64
口口口口 |①---|
口口口口 |②---|
③口②③ |③---|
口①口口 |----|
65
口口口口 |①---|
①口口① |----|
②口口② |----|
口口口口 |②---|
66
口口口口 |①---|
②口口② |----|
口①①口 |②---|
口口口口 |----|
67
①①①① |①---|
口口口口 |----|
口口口口 |----|
口口口口 |----|
不确定度: 0