CARTOON HEROES

ADVANCED

Level: 6
BPM: 128
Notes: 369

1
口口口口 |----|
口口口口 |----|
口口口口 |----|
口口口口 |----|
2
口口②口 |①---|
①口口④ |②---|
口③口口 |③---|
口口口口 |④---|
3
口口口口 |①---|
口口口口 |----|
口口口口 |----|
口口①口 |----|
4
口口口口 |----|
口口口口 |----|
口口口口 |----|
口口口口 |----|
5
口①①口 |----|
口口口口 |----|
口口口口 |----|
口口口口 |①---|
6
口口口口 |①---|
口口口④ |②---|
①②③④ |③---|
口口口口 |④---|
7
口①②口 |①-②-|
口③④口 |--③-|
口口口口 |④---|
口⑤⑤口 |⑤---|
8
口口口口 |①---|
口口口④ |②---|
①②③④ |③---|
口口口口 |④---|
9
口①②口 |①-②-|
⑤③④口 |--③-|
⑤口口口 |④---|
口口口口 |⑤---|
10
口口口口 |①---|
口口口口 |②---|
口③④口 |③-④-|
①口口② |----|
11
口③④口 |①-②-|
口①②口 |--③-|
口口口口 |④---|
⑤口口⑤ |⑤---|
12
口口口口 |①---|
②口口② |②---|
①口口①
口口口口

口③③口
口口口口
⑤口口⑤ |③-④-|
④口口④ |--⑤-|
13
口②③口 |--①-|
①口口① |--②-|
口口口口 |③---|
口④④口 |④---|
14
口④④口 |①---|
口①②③ |②---|
①②③口 |③---|
口口口口 |④---|
15
口⑤⑤口 |①-②-|
③口①口 |--③-|
口④口② |④---|
口口口口 |⑤---|
16
口④④口 |①---|
口①②③ |②---|
①②③口 |③---|
口口口口 |④---|
17
口口口口 |①-②-|
③口①口 |--③-|
⑤④口② |④---|
口⑤口口 |⑤---|
18
口口②口 |①---|
口①口② |②---|
口口①③ |--③-|
④口③口 |--④-|
19
口②口① |①---|
②口口口 |②---|
口口口口 |----|
③口口③ |③---|
20
③③口③ |①---|
②②口② |②---|
①①口① |③---|
④口口④ |④---|
21
⑤⑤口⑤ |①-②-|
③口④③ |③-④-|
①①②① |⑤---|
⑥口口⑥ |⑥---|
22
③③口③ |①---|
②②口② |②---|
①①口① |③---|
④口口④ |④---|
23
⑤⑤口⑤ |①-②-|
③口④③ |③-④-|
①①②① |⑤---|
⑥口口⑥ |⑥---|
24
③③口③ |①---|
②②口② |②---|
①①口① |③---|
④④口④ |④---|
25
⑤⑤口⑤ |①-②-|
③口④③ |③-④-|
①①②① |⑤---|
⑥⑥口⑥ |⑥---|
26
③口④③ |①---|
②②口② |②---|
①①口① |③-④-|
⑤口⑥⑤ |⑤-⑥-|
27
⑤⑤口⑤ |①-②-|
③口④③ |③-④-|
①口②① |⑤---|
口口口口 |----|
28
④④口④ |①---|
①①口① |②---|
②②口② |③---|
③③口③ |④---|
29
⑥口口⑥ |①-②-|
①①②① |③-④-|
③口④③ |⑤---|
⑤⑤口⑤ |⑥---|
30
⑥口⑦⑥ |①-②-|
①①②① |③---|
③③口③ |④-⑤-|
④④⑤④ |⑥-⑦-|
31
⑥⑥口⑥ |①-②-|
①①②① |③-④-|
③口④③ |⑤---|
⑤⑤口⑤ |⑥---|
32
⑤口⑥⑤ |①---|
①①口① |②---|
②②口② |③-④-|
③口④③ |⑤-⑥-|
33
④④口④ |①---|
①①口① |②---|
②②口② |③---|
③口口③ |④---|
34
口口⑤口 |①---|
①①口① |②---|
②②口② |③-④-|
③③④③ |--⑤-|
35
口口口口 |①---|
口①口口 |②---|
口②口口
口口口口

口口口口
口③口口
口口口口 |----|
口口口口 |--③-|
36
⑤口口⑤ |①-②-|
口口①口 |③---|
口②③口 |④---|
④口口④ |⑤---|
37
口②口⑤ |①-②-|
口口④口 |--③-|
口口⑥口 |④-⑤-|
口①③口 |--⑥-|
38
口口口口 |①-②-|
口②③④ |③-④-|
口①口⑤ |⑤-⑥-|
⑦口口⑥ |⑦---|
39
①口口② |①---|
口口口口 |②---|
口④口口 |③---|
口口口③ |--④-|
40
③①口口 |①---|
口口④⑤ |②---|
口口口口 |③-④-|
②口口口 |⑤---|
41
口⑤⑤② |①-②-|
口④④口 |--③-|
口③③口 |④-⑤-|
口口⑥① |--⑥-|
42
口③口口 |①-②-|
口④口① |③---|
②口⑤口 |④-⑤-|
⑥口口⑥ |⑥---|
43
口①②口 |①-②-|
③口口③ |----|
③口口③ |③---|
口口口口 |----|
44
口①口⑥ |①-②-|
⑤②口口 |③-④-|
④③口口 |⑤---|
口口口口 |--⑥-|
45
口口①口 |①-②-|
口口②⑤ |③-④-|
口口③④ |⑤---|
口⑥⑥口 |⑥---|
46
③①①③ |①---|
口④④口 |②---|
口④④口 |③---|
②口口② |④---|
47
口①①口 |----|
②口口② |①---|
②口口② |----|
口口口口 |②---|
48
①口口① |----|
口口口口 |①---|
口口口口 |----|
②②②② |②---|
49
①①①① |----|
口口口口 |----|
口口口口 |----|
口口口口 |①---|
50
口口口口 |----|
口①①口 |①---|
口①①口 |----|
口口口口 |----|


不确定度: 0

最終更新:2012年11月11日 22:52