Chance and Dice
日本少年

BASIC

Level: 5
BPM: 150
Notes: 319

1
口口口口 |----|
口口口口 |----|
口口口口 |----|
口口口口 |----|
2
口口口口 |----|
口口口口 |----|
口口口口 |----|
口口口口 |----|
3
口①口口 |①---|
③④②⑤ |②---|
口口①口 |③---④-|
口②口口 |--⑤---|
4
口口口① |①-②-|
口口②口 |③---|
⑥③⑤④ |④---⑤-|
口口口口 |--⑥---|
5
口口①口 |①---|
⑤②④③ |②---|
口①口口 |③---④-|
口口②口 |--⑤---|
6
①口口口 |①-②-|
口②口口 |③-④-|
⑤⑥③⑦ |⑤---⑥-|
口口口④ |--⑦---|
7
口①口口 |①---|
③④②⑤ |②---|
口口①口 |③---④-|
口②口口 |--⑤---|
8
口口口① |①-②-|
口口②口 |③---|
⑥③⑤④ |④---⑤-|
口口口口 |--⑥---|
9
口口①口 |①---|
⑤②④③ |②---|
口①口口 |③---④-|
口口②口 |--⑤---|
10
①口口口 |①-②-|
口②口口 |③-④-|
⑤⑥③⑦ |⑤---⑥-|
口口口④ |--⑦---|
11
①②③④ |①---|
口口口口 |②---|
口口口口 |③---|
口口口口 |④---|
12
口口口口 |①---|
口口口口 |②---|
口口口口 |③---|
①②③④ |④---|
13
①口口口 |①---|
口③口口 |②---|
口口②口 |③---|
口口口④ |④---|
14
口口口④ |①---|
口口②口 |②---|
口③口口 |③---|
①口口口 |④---|
15
①②口④ |①---|
口口③口 |②---|
口口口口 |③---|
口口口口 |④---|
16
口口口口 |①---|
口口口口 |②---|
口③口口 |③---|
④口②① |④---|
17
口口①口 |①---|
口②口口 |②---|
口口③口 |③---|
口④口口 |④---|
18
③口口① |①---|
口②④口 |②---|
口④②口 |③---|
①口口③ |④---|
19
④③②① |①---|
口口口口 |②---|
口口口口 |③---|
口口口口 |④---|
20
口口口口 |①---|
口口口口 |②---|
口口口口 |③---|
④③②① |④---|
21
④③口① |①---|
口口②口 |②---|
口口口口 |③---|
口口口口 |④---|
22
口口口口 |①---|
口口口口 |②---|
口③口口 |③---|
④口②① |④---|
23
口口口④ |①---|
口②③口 |②---|
①口口口 |③---|
口口口口 |④---|
24
①口口口 |①---|
口②③口 |②---|
口口口④ |③---|
口口口口 |④---|
25
口口口口 |①---|
口①③口 |②---|
口④②口 |③---|
口口口口 |④---|
26
②口口② |①---|
口口口口 |②---|
口④④口 |③---|
①③③① |④---|
27
口②②口 |①---|
口①①口 |②---|
③口口④ |③---|
口口口口 |④---|
28
口口口口 |①---|
①口口② |②---|
口④④口 |③---|
口③③口 |④---|
29
③口口② |①---|
口①①④ |②---|
口口口口 |③---|
口口口口 |④---|
30
②口口口 |①---|
①③口口 |②---|
口口④口 |③---|
口口口口 |④---|
31
口口口② |①---|
口口③口 |②---|
口④口口 |③---|
口口口① |④---|
32
口②③口 |①---|
口④口口 |②---|
口口口口 |③---|
①口口口 |④---|
33
口口口口 |①---|
口口①口 |②---|
口②③口 |③---|
口④口口 |④---|
34
口口口口 |①---|
口③③口 |②---|
口②②口 |③---|
口口①口 |----|
35
口④①口 |①---②-|
③口口② |--③---|
②口口③ |④---|
口①④口 |----|
36
①口口② |①---|
口①②口 |②---|
①④口② |③---|
③口口口 |④---|
37
口口口口 |①---|
口口口口 |②---|
口口①口 |③---|
口③③② |----|
38
①口口② |①---|
口①②口 |②---|
①口④② |③---|
口口口③ |④---|
39
口口口口 |①---|
口④口口 |②---|
口①④口 |③---|
②③③口 |④---|
40
②③④口 |①---|
口口①口 |②---|
口①口口 |③---|
口口口口 |④---|
41
口口口① |①---|
口口口口 |②---|
口口口口 |③---|
口④③② |④---|
42
口②口口 |①---|
口口③口 |②---|
口④口口 |③---|
①口口口 |④---|
43
口口口口 |①---|
④口口口 |②---|
口口口③ |③---|
②口①口 |④---|
44
①④口② |①---|
口①②口 |②---|
①③口② |③---|
口口口口 |④---|
45
口口②口 |①---|
③口口④ |②---|
口口①口 |③---|
口口口口 |④---|
46
①④口② |①---|
口①②口 |②---|
①③口② |③---|
口口口口 |④---|
47
口口②口 |①---|
③口口④ |②---|
口口①口 |③---|
口口口口 |④---|
48
口口口口 |①---|
④口口口 |②---|
②口口③ |③---|
口①①口 |④---|
49
口②口口 |①---|
口③口① |②---|
口④口口 |③---|
口口口口 |④---|
50
口口②口 |①---|
口口③口 |②---|
口口④口 |③---|
口①口口 |④---|
51
口口口口 |①---|
②口口③ |----|
口口口口 |②---|
口口①口 |③---|
52
口①口口 |①---|
③④②⑤ |②---|
口口①口 |③---④-|
口②口口 |--⑤---|
53
口口口① |①-②-|
口口②口 |③---|
⑥③⑤④ |④---⑤-|
口口口口 |--⑥---|
54
口口①口 |①---|
⑤②④③ |②---|
口①口口 |③---④-|
口口②口 |--⑤---|
55
①口口口 |①-②-|
口②口口 |③-④-|
⑤⑥③⑦ |⑤---⑥-|
口口口④ |--⑦---|
56
口①口口 |①---|
③④②⑤ |②---|
口口①口 |③---④-|
口②口口 |--⑤---|
57
口口口① |①-②-|
口口②口 |③---|
⑥③⑤④ |④---⑤-|
口口口口 |--⑥---|
58
口口①口 |①---|
⑤②④③ |②---|
口①口口 |③---④-|
口口②口 |--⑤---|
59
①口口口 |①-②-|
口②口口 |③-④-|
⑤⑥③⑦ |⑤---⑥-|
口口口④ |--⑦---|
60
①口口① |①---|
口①①口 |----|
口口口口 |----|
口口口口 |----|
61
口口口口 |----|
口口口口 |----|
口口口口 |----|
口口口口 |----|
62
口口口口 |①---|
①①①① |----|
口①①口 |----|
口口口口 |----|


不确定度: 0

最終更新:2012年11月11日 17:13