Chance and Dice
日本少年

ADVANCED

Level: 6
BPM: 150
Notes: 356

1
口口口口 |----|
口口口口 |----|
口口口口 |----|
口口口口 |----|
2
口口口口 |----|
口口口口 |----|
口口口口 |----|
口口口口 |----|
3
①①口口 |①---|
口口②② |②---|
口口①①
②②口口

口口口口
③④口口
口口口⑤ |③---④-|
口口口口 |--⑤---|
4
口③口① |①-②-|
④口②⑥ |③---|
口口口⑤ |④---⑤-|
口口口口 |--⑥---|
5
口口①① |①---|
②②口口 |②---|
①①口口
口口②②

口口口口
口口④口
⑤口口③ |③---④-|
口口口口 |--⑤---|
6
①口口口 |①-②-|
⑤②口④ |③-④-|
口⑥③口 |⑤---⑥-|
口口口⑦ |--⑦---|
7
①①口口 |①---|
口口②② |②---|
口口①①
②②口口

口口口口
③口口口
口④口⑤ |③---④-|
口口口口 |--⑤---|
8
口③口① |①-②-|
口口②④ |③---|
口口⑤口 |④---⑤-|
⑥口口口 |--⑥---|
9
口口①① |①---|
②②④③ |②---|
①①口口 |③---④-|
⑤口②② |--⑤---|
10
①口口口 |①-②-|
口②口口 |③-④-|
口口③口
口口口④

⑧⑨口口
口口口口
⑤⑥口⑦ |⑤---⑥-|
口口口口 |----⑦-⑧--⑨--|
11
口口①④ |①---②-|
口口②③ |--③---|
口口口口 |④---|
口口⑥⑤ |--⑤⑥|
12
口口⑥⑤ |①---②-|
口口口口 |--③---|
③②口口 |④---|
④①口口 |--⑤⑥|
13
②①口口 |①----②--|
口③口口 |--③---|
口口④⑥ |④---⑤-|
口口口⑤ |--⑥-|
14
⑤⑥口口 |①---②-|
口口口口 |--③---|
口口口口 |④---|
①②③④ |--⑤⑥|
15
口口①④ |①---②-|
口口②③ |--③---|
口口口口 |④---|
口口⑥⑤ |--⑤⑥|
16
口口口⑤ |①----②--|
口口口口 |---③----|
③②口口 |④---|
④①口口 |⑤---|
17
③②①口 |①---|
口④口口 |--②---|
口口口口 |③---|
口口口口 |--④-|
18
口口口口 |①-②-|
口口①口 |③-④-|
口②③⑥ |⑤---|
口④⑤口 |⑥---|
19
口口②③ |①---②-|
口口①④ |--③---|
口口口口 |④---|
口口⑥⑤ |--⑤⑥|
20
口口⑥⑤ |①----②--|
口口口口 |---③----|
③②口口 |④---|
④①口口 |--⑤⑥|
21
②①口口 |①---②-|
口③口口 |--③---|
口口④⑥ |④---⑤-|
口口口⑤ |--⑥---|
22
口口口② |①---②-|
口④③① |--③---|
口口口口 |④---|
口口⑥⑤ |--⑤⑥|
23
⑤⑥口口 |①---②-|
口口口口 |--③-|
③②口口 |④---|
④①口口 |--⑤⑥|
24
口口①④ |①--②|
口⑤②③ |-③--|
口口口口 |④---|
口口口口 |⑤---|
25
口口口口 |①---|
口口②口 |--②---|
口③①口 |③---④-|
口④⑤口 |--⑤---|
26
口口口口 |①---|
口口口口 |----|
②口口口 |②---|
口③口① |③---|
27
⑤口口口 |①---|
④口口口 |--②---|
③口①口 |③---④-|
②口口口 |--⑤---|
28
口口口① |①---|
口口①口 |----|
口口口② |②---|
口口③口 |③---|
29
口口口② |①---|
口口口③ |--②---|
口①口④ |③---④-|
口口口⑤ |--⑤---|
30
口口口口 |①---|
口口④⑤ |--②---|
①口③口 |③---④-|
口①②口 |--⑤---|
31
口②口口 |①---|
口③口口 |--②---|
⑤④口① |③---④-|
口口口口 |--⑤---|
32
口⑤口口 |①---|
①口④口 |--②---|
口③口口 |③---④-|
口口②口 |--⑤---|
33
①口⑤口 |①---|
口④口口 |--②---|
口口③口 |③---④-|
口②口口 |--⑤---|
34
口口口口 |①---②-|
口口口口 |--③---|
①②③④ |④---|
口口口口 |----|
35
口④口口 |①---②-|
口③口口 |--③---|
①②③④ |④---|
口①口口 |----|
36
口⑥②① |①---|
⑤②①口 |②-③---|
口④口口 |④---⑤-|
③口口口 |--⑥---|
37
口口口④ |①---②-|
口口口③ |--③---|
口口口② |④---|
口口口① |----|
38
①②⑥口 |①---|
口①②⑤ |②-③-|
口口④口 |④---⑤-|
口口口③ |--⑥-|
39
④口口口 |①---②-|
③⑤口口 |--③---|
②口⑤口 |④---|
①口口口 |⑤---|
40
口口①口 |①---|
口口口口 |--②---|
②③④⑤ |③---④-|
口①口口 |--⑤---|
41
口②口口 |①---|
口③①口 |--②---|
口④口口 |③---④-|
口⑤①口 |--⑤---|
42
②③口口 |①---|
口④⑤口 |--②---|
①口①口 |③---④-|
口口口口 |--⑤---|
43
口口口口 |①---②-|
口口口口 |--③---|
⑤口口⑤ |④---⑤-|
④③②① |----|
44
口⑥②① |①---|
⑤②①口 |②-③---|
口④口口 |④---⑤-|
③口口口 |--⑥---|
45
口口口④ |①---②-|
口口口③ |--③---|
口口口② |④---|
口口口① |----|
46
①②⑥口 |①---|
口①②⑤ |②-③-|
口口④口 |④---⑤-|
口口口③ |--⑥-|
47
④口口口 |①---②-|
③⑤口口 |--③---|
②口⑤口 |④---|
①口口口 |⑤---|
48
口口①口 |①---|
口口口口 |--②---|
②③④⑤ |③---④-|
口①口口 |--⑤---|
49
口②口口 |①---|
口③①口 |--②---|
口④口口 |③---④-|
口⑤①口 |--⑤---|
50
口口口口 |①---|
②③④⑤ |--②---|
①口①口 |③---④-|
口口口口 |--⑤---|
51
口口口口 |①---|
口口口口 |----|
①口口① |②---|
②口口③ |③---|
52
①口口① |①---|
口①①口 |----|
①口口① |----|
口口口口 |----|
53
口③②口 |----|
口口口口 |①---|
口口口口 |②---|
③①①② |③---|
54
①口口① |①---|
口①①口 |----|
①口口① |----|
口口口口 |----|
55
口口口口 |----|
③口口④ |--①-|
口口口口 |②---③-|
口①②口 |--④---|
56
①口口① |①---|
口①①口 |----|
①口口① |----|
口口口口 |----|
57
口③①口 |----|
②口口② |①---|
口口口口 |②---|
口①③口 |③---|
58
①口口① |①---|
口①①口 |----|
①口口① |----|
口口口口 |----|
59
口口口口 |----|
口口口口 |----|
口口口口 |----|
口口口口 |----|
60
①口口① |①---|
口①①口 |----|
①口口① |----|
口口口口 |----|
61
口口口口 |----|
口口口口 |----|
口口口口 |----|
口口口口 |----|
62
口口口口 |①---|
①口口① |----|
口①①口 |----|
①口口① |----|


不确定度: 0

最終更新:2012年11月11日 17:05