隅田川夏恋歌
seiya-murai feat.ALT

EXTREME

Level: 9
BPM: 180
Notes: 683

1
口口口口 |----|
口口口口 |----|
口口口口 |----|
口口口口 |----|
2
①口③口 |①---|
口口②口 |--②-|
口②口口 |----|
口③口① |③---|
3
口③④口 |①---|
②口口② |--②-|
①口口① |----|
口口口口 |③-④-|
4
①口口② |①---|
口③口口 |--②③|
口口口口 |④---|
⑤⑤④口 |--⑤-|
5
②⑥口⑤ |①-②③|
口⑧①口 |④-⑤-|
口④⑦口 |--⑥-|
口口口③ |⑦-⑧-|
6
口⑤④口 |①---|
③口口⑥ |--②③|
口口口口 |④---|
口②①口 |--⑤⑥|
7
②⑧口口 |①-②③|
⑤口③口 |④-⑤-|
⑦⑥口口 |⑥---|
口④①口 |⑦-⑧-|
8
口口口② |①---|
口③口① |--②③|
口口口口 |④---|
⑤⑤④口 |--⑤-|
9
②⑥口⑤ |①-②③|
口⑧①口 |④-⑤-|
口④⑦口 |--⑥-|
口口口③ |⑦-⑧-|
10
口⑤④口 |①---|
③口口⑥ |--②③|
口口口口 |④---|
口②①口 |--⑤⑥|
11
②⑧口口 |①-②③|
⑤口③口 |④-⑤-|
口⑥口口 |⑥---|
⑦④①口 |⑦-⑧-|
12
口口口口 |①---|
口口口口 |----|
口口口口 |----|
口口①口 |----|
13
①⑥⑤④ |--①-|
②⑦口③ |②-③-|
③口⑦② |④-⑤-|
④⑤⑥① |⑥-⑦-|
14
口口口口 |①---|
②口①② |--②③|
③①口③ |④---|
④口口④ |----|
15
①口口口 |----|
②③④口 |----|
口④③② |①-②-|
口口口① |③-④-|
16
口口①口 |①---|
口口口口 |----|
口口口口 |----|
口①口口 |----|
17
①⑤口② |--①-|
③口⑥④ |②-③-|
口⑦口口 |④-⑤⑥|
口口口⑧ |⑦-⑧-|
18
⑤⑤④④ |①---|
③口口口 |②-③-|
口⑥②② |④---|
①①口口 |⑤-⑥-|
19
口⑦⑧口 |①②③-|
口①⑥⑥ |④-⑤-|
②口⑤⑤ |⑥---|
口③④④ |⑦-⑧-|
20
①口口② |①---|
口③口口 |--②③|
口口口口 |④---|
⑤⑤④口 |--⑤-|
21
②⑥口⑤ |①-②③|
口⑧①口 |④-⑤-|
口④⑦口 |--⑥-|
口口口③ |⑦-⑧-|
22
口⑤④口 |①---|
③口口⑥ |--②③|
口口口口 |④---|
口②①口 |--⑤⑥|
23
②⑧口口 |①-②③|
⑤口③口 |④-⑤-|
⑦⑥口口 |⑥---|
口④①口 |⑦-⑧-|
24
口口口② |①---|
口③口① |--②③|
口口口口 |④---|
⑤⑤④口 |--⑤-|
25
②⑥口⑤ |①-②③|
口⑧①口 |④-⑤-|
口④⑦口 |--⑥-|
口口口③ |⑦-⑧-|
26
口⑤④口 |①---|
③口口⑥ |--②③|
口口口口 |④---|
口②①口 |--⑤⑥|
27
②⑧口口 |①-②③|
⑤口③口 |④-⑤-|
口⑥口口 |⑥---|
⑦④①口 |⑦-⑧-|
28
口口口口 |①---|
口口口口 |----|
口口口口 |----|
口口①口 |----|
29
①⑥⑤④ |--①-|
②⑦口③ |②-③-|
③口⑦② |④-⑤-|
④⑤⑥① |⑥-⑦-|
30
口口口口 |①---|
②口①② |--②③|
③①口③ |④---|
④口口④ |----|
31
口口口① |----|
口④③② |----|
②③④口 |①-②-|
①口口口 |③-④-|
32
口①口口 |①---|
口口口口 |----|
口口口口 |----|
口口①口 |----|
33
口口①④ |--①-|
口②⑤口 |②-③-|
③⑥口口 |④-⑤-|
⑦口口口 |⑥-⑦-|
34
②③口口 |①---|
③口口口 |②-③-|
口口口①
口口①口

口口口口
口④口口
口口⑤⑥ |④---|
口口⑥口 |⑤-⑥-|
35
⑥⑦口② |①-②-|
⑦口③口 |③-④-|
口④口口 |⑤---|
⑤口口① |⑥-⑦-|
36
口口②④ |①-②-|
口①③⑥ |③-④-|
②③⑤⑦ |⑤-⑥-|
④⑥⑦⑧ |⑦-⑧-|
37
①②③④ |①-②-|
⑤⑥口口 |③-④-|
口⑦口口 |⑤-⑥⑦|
⑨口⑧口 |⑧-⑨-|
38
②口口⑤ |①---|
口⑥③口 |②-③-|
口口口口 |④---|
口④口① |⑤-⑥-|
39
⑤⑥口口 |①---|
⑥口口② |--②③|
口口③口 |④---|
口口①④ |⑤-⑥-|
40
口口②④ |①-②-|
口①③⑥ |③-④-|
②③⑤⑦ |⑤-⑥-|
④⑥⑦⑧ |⑦-⑧-|
41
①②④⑨ |①-②-|
②③⑤口 |③-④-|
④⑤⑥⑦ |⑤-⑥⑦|
⑨口⑦⑧ |⑧-⑨-|
42
②①③口 |①---|
①⑤口⑥ |②-③-|
③口口④ |④---|
口⑥④口 |⑤-⑥-|
43
口①口口 |①---|
①口口口 |--②③|
口口②③
口口③口

⑤⑥口口
⑥口口口
口口口口 |④---|
口口口④ |⑤-⑥-|
44
口口②④ |①-②-|
口①③⑥ |③-④-|
②③⑤⑦ |⑤-⑥-|
④⑥⑦⑧ |⑦-⑧-|
45
①②③④ |①-②-|
⑤⑥口口 |③-④-|
口⑦口口 |⑤-⑥⑦|
⑨口⑧口 |⑧-⑨-|
46
②口口⑤ |①---|
口⑥③口 |②-③-|
口口口口 |④---|
口④口① |⑤-⑥-|
47
⑤⑥口口 |①---|
⑥口口② |--②③|
口口③口 |④---|
口口①④ |⑤-⑥-|
48
口口②④ |①-②-|
口①③⑥ |③-④-|
②③⑤⑦ |⑤-⑥-|
④⑥⑦⑧ |⑦-⑧-|
49
①②④⑨ |①-②-|
②③⑤口 |③-④-|
④⑤⑥⑦ |⑤-⑥⑦|
⑨口⑦⑧ |⑧-⑨-|
50
②①③口 |①---|
①⑤口⑥ |②-③-|
③口口④ |④---|
口⑥④口 |⑤-⑥-|
51
⑤①②口 |①---|
①⑧⑥口 |--②③|
口③口口 |④-⑤⑥|
口⑦口④ |⑦-⑧-|
52
口口口口 |①---|
口口口口 |----|
口口①口 |----|
口口口口 |----|
53
②⑩口⑤ |①-②③|
口⑥③口 |④-⑤⑥|
口①⑨口 |⑦-⑧⑨|
⑧④⑦⑪ |⑩-⑪-|
54
口口①口 |①---|
口口口口 |----|
口口口口 |----|
口口口口 |----|
55
①②⑨⑩ |①②③④|
③④⑪⑫ |⑤⑥⑦⑧|
⑤⑥⑬⑭ |⑨⑩⑪⑫|
⑦⑧⑮⑯ |⑬⑭⑮⑯|
56
口①口口 |①---|
①口口口 |----|
口口口口 |----|
口口口口 |----|
57
②⑩口⑤ |①-②③|
口⑥③口 |④-⑤⑥|
口①⑨口 |⑦-⑧⑨|
⑧④⑦⑪ |⑩-⑪-|
58
①口口⑤ |①-②-|
口⑥②口 |③-④-|
③口口⑦ |⑤-⑥-|
口⑧④口 |⑦-⑧-|
59
⑥⑦口口 |①-②-|
⑦口①口 |③-④-|
口②③口 |⑤---|
口口④⑤ |⑥-⑦-|
60
口口②④ |①-②-|
口①③⑥ |③-④-|
②③⑤⑦ |⑤-⑥-|
④⑥⑦⑧ |⑦-⑧-|
61
①②③④ |①-②-|
⑤⑥口口 |③-④-|
口⑦口口 |⑤-⑥⑦|
⑨口⑧口 |⑧-⑨-|
62
②口口⑤ |①---|
口⑥③口 |②-③-|
口口口口 |④---|
口④口① |⑤-⑥-|
63
⑤⑥口口 |①---|
⑥口口② |--②③|
口口③口 |④---|
口口①④ |⑤-⑥-|
64
口口②④ |①-②-|
口①③⑥ |③-④-|
②③⑤⑦ |⑤-⑥-|
④⑥⑦⑧ |⑦-⑧-|
65
①②④⑨ |①-②-|
②③⑤口 |③-④-|
④⑤⑥⑦ |⑤-⑥⑦|
⑨口⑦⑧ |⑧-⑨-|
66
②①③口 |①---|
①⑤口⑥ |②-③-|
③口口④ |④---|
口⑥④口 |⑤-⑥-|
67
口①口口 |①---|
①口口口 |--②③|
口口②③
口口③口

⑤⑥口口
⑥口口口
口口口口 |④---|
口口口④ |⑤-⑥-|
68
口口②④ |①-②-|
口①③⑥ |③-④-|
②③⑤⑦ |⑤-⑥-|
④⑥⑦⑧ |⑦-⑧-|
69
①②③④ |①-②-|
⑤⑥口口 |③-④-|
口⑦口口 |⑤-⑥⑦|
⑨口⑧口 |⑧-⑨-|
70
②口口⑤ |①---|
口⑥③口 |②-③-|
口口口口 |④---|
口④口① |⑤-⑥-|
71
⑤⑥口口 |①---|
⑥口口② |--②③|
口口③口 |④---|
口口①④ |⑤-⑥-|
72
口口②④ |①-②-|
口①③⑥ |③-④-|
②③⑤⑦ |⑤-⑥-|
④⑥⑦⑧ |⑦-⑧-|
73
①②④⑨ |①-②-|
②③⑤口 |③-④-|
④⑤⑥⑦ |⑤-⑥⑦|
⑨口⑦⑧ |⑧-⑨-|
74
②①③口 |①---|
①⑤口⑥ |②-③-|
③口口④ |④---|
口⑥④口 |⑤-⑥-|
75
⑤①②口 |①---|
①⑧⑥口 |--②③|
口③口口 |④-⑤⑥|
口⑦口④ |⑦-⑧-|
76
口①③口 |①---|
①⑤口⑥ |②-③-|
③口②④ |④---|
口⑥④口 |⑤-⑥-|
77
⑤①②口 |①---|
①⑧⑥口 |--②③|
口③口口 |④-⑤⑥|
口⑦口④ |⑦-⑧-|
78
口口口口 |①---|
口口口口 |----|
口口①口 |----|
口口口口 |----|
79
②⑩口⑤ |①-②③|
口⑥③口 |④-⑤⑥|
口①⑨口 |⑦-⑧⑨|
⑧④⑦⑪ |⑩-⑪-|
80
口口①口 |①---|
口口口口 |----|
口口口口 |----|
口口口口 |----|
81
①②⑨⑩ |①②③④|
③④⑪⑫ |⑤⑥⑦⑧|
⑤⑥⑬⑭ |⑨⑩⑪⑫|
⑦⑧⑮⑯ |⑬⑭⑮⑯|
82
①②口口 |----|
②③口口 |①---|
口口口口 |②---|
口口口口 |③---|
83
口口口口 |①---|
口口①口 |②---|
口①②③ |③---|
口口③④ |④---|


不确定度: 0

最終更新:2012年11月11日 16:59