STARLIT DUST/スティルに捧ぐ
Des-ROW+ANT

EXTREME

Level: 8
BPM: 183
Notes: 654

1
口口口口 |----|
口口口口 |----|
口口口口 |----|
口口口口 |----|
2
口口口口 |①---|
口口⑦口 |②-③-|
⑥⑤③口 |④-⑤-|
②①①④ |⑥-⑦-|
3
⑦⑥④⑧ |①-②-|
③②口⑤ |③-④-|
口口口① |⑤-⑥-|
口口口口 |⑦-⑧-|
4
口口口口 |①---|
口口⑦口 |②-③-|
⑥⑤③口 |④-⑤-|
②①①④ |⑥-⑦-|
5
⑦⑥④⑧ |①-②-|
③②口⑤ |③-④-|
口口口① |⑤-⑥-|
口口口口 |⑦-⑧-|
6
口口⑦口 |①---|
②口⑤口 |②-③-|
④口③口 |④-⑤-|
⑥①①口 |⑥-⑦-|
7
⑥④口⑦ |①---|
口②口口 |②-③-|
口口口③ |④-⑤-|
口①①⑤ |⑥-⑦-|
8
口口⑦口 |①---|
②口⑤口 |②-③-|
④口③口 |④-⑤-|
⑥①①口 |⑥-⑦-|
9
⑥④口⑦ |①---|
口②口口 |②-③-|
口口口③ |④-⑤-|
口①①⑤ |⑥-⑦-|
10
口⑥口⑦ |①---|
口④口⑤ |②-③-|
口②口③ |④-⑤-|
口①①口 |⑥-⑦-|
11
①口②口 |①-②-|
③口④口 |③-④-|
⑤口⑥⑧ |⑤-⑥-|
⑦口口⑨ |⑦⑧⑨-|
12
口口口② |①---|
④口③口 |②-③-|
⑦⑤口⑥ |④-⑤-|
口①①口 |⑥-⑦-|
13
口口口口 |①-②-|
④②⑥⑤ |③-④⑤|
⑧⑨③⑦ |⑥-⑦⑧|
⑩①口⑪ |⑨-⑩⑪|
14
口②④口 |①---|
③口口⑤ |②-③-|
⑥口口⑦ |④-⑤-|
口①①口 |⑥-⑦-|
15
②口口④ |①---|
口③⑤口 |②-③-|
口⑥⑦口 |④-⑤-|
口①①口 |⑥-⑦-|
16
②口口⑥ |①---|
⑦口口③ |②-③-|
④口口口 |④-⑤-|
口①①⑤ |⑥-⑦-|
17
⑥⑦⑦⑥ |①-②-|
口⑤⑤口 |③-④-|
口④③① |⑤-⑥-|
②③④口 |⑦---|
18
口口口口 |--①-|
①口口① |②-③-|
②口口②
③口口③
19
①④口① |①---|
口②⑥口 |②-③-|
口①①口 |④---|
口⑤③口 |⑤-⑥-|
20
口口②口 |----|
口口口口 |①---|
①③④口 |②---|
口口口口 |③-④-|
21
口②②口 |----|
口③④口 |①---|
①口口① |②---|
口口口口 |③-④-|
22
口口口口 |----|
①口口② |①---|
②口口① |②---|
③口④口 |③-④-|
23
①口②③ |--①-|
④口口口 |②---|
口口口⑤ |③-④-|
口⑥⑥口 |⑤-⑥-|
24
口口口② |----|
③口口口 |①---|
口①①④ |②-③-|
口⑤⑤口 |④-⑤-|
25
③②①④ |----|
口①口口 |①---|
口口口口 |②-③-|
口⑤⑤口 |④-⑤-|
26
口口口口 |①②③④|
①⑧⑧② |⑤⑥⑦-|
③⑦⑦④ |----|
⑤口口⑥ |--⑧-|
27
口③口口 |----|
①口⑤口 |①-②-|
口口口② |③---|
口④口口 |④-⑤-|
28
口口③口 |--①-|
口口口① |②---|
②④⑤口 |③---|
口口口口 |④-⑤-|
29
口③③口 |----|
②④⑤② |①-②-|
①口口① |③---|
口口口口 |④-⑤-|
30
口口口口 |----|
①口口② |①---|
②口口① |②---|
③口④口 |③-④-|
31
①口②③ |--①-|
④口口口 |②---|
口口口⑤ |③-④-|
口⑥⑥口 |⑤-⑥-|
32
口②③口 |----|
口④口口 |①---|
⑤⑤⑤⑤ |②-③-|
①口口① |④-⑤-|
33
口③④口 |--①-|
②口⑤② |②---|
口口口口 |③-④-|
①⑥⑥① |⑤-⑥-|
34
⑥口口② |--①-|
①口口⑤ |②-③-|
④③③口 |--④-|
口口口口 |⑤-⑥-|
35
⑤②⑥③ |①---|
口①①口 |②-③-|
④口口口 |④---|
口口口口 |⑤-⑥-|
36
口口口口 |----|
口①④口 |①-②-|
口③②口 |----|
口口口口 |③-④-|
37
①②⑤口 |①---|
②③④⑤ |②---|
⑤④③② |③---|
口⑤②① |④-⑤-|
38
口口口口 |----|
口口口口 |----|
口口口口 |----|
口口口口 |----|
39
口口口口 |----|
口口口口 |----|
口口口口 |----|
口口口口 |----|
40
①②③口 |①---|
口口口口 |②---|
⑤口口④ |③---|
④口口⑤ |④-⑤-|
41
④口口口 |①---|
②口⑤② |②---|
口③③口 |③---|
口①①口 |④-⑤-|
42
口③③① |--①-|
口②口口 |②---|
④口口④ |③---|
口口口口 |④---|
43
口口口口 |①---|
口口口口 |----|
口①②口 |②---|
①口口② |----|
44
口口口口 |①---|
口口口口 |----|
④②③⑤ |②-③-|
⑥①①⑦ |④⑤⑥⑦|
45
③④⑤③ |①---|
②①①② |②---|
口口口口 |③---|
口口口口 |④-⑤-|
46
口口口口 |----|
口口口口 |①---|
②口口③ |②---|
③①①② |③---|
47
口口口口 |①---|
①口口② |----|
口①②口 |②---|
口口口口 |----|
48
①口口② |①---|
口①②口 |----|
口③④口 |②---|
口⑤⑥口 |③④⑤⑥|
49
口③②口 |①---|
①④⑤① |②---|
③口口② |③---|
口口口口 |④-⑤-|
50
口口口口 |----|
①口口② |①---|
口③③口 |②---|
口①②口 |③---|
51
口口口口 |①---|
口①②口 |----|
②口口① |②---|
口口口口 |----|
52
①②②① |①---|
②口口② |----|
口口口口 |②---|
口口口口 |----|
53
①口口① |----|
口口口口 |①---|
口口口口 |②---|
②③④② |③-④-|
54
口③③口 |----|
口②②口 |①---|
①口口① |②---|
口口口口 |③---|
55
①口口② |①②③④|
③⑬⑭④ |⑤⑥⑦⑧|
⑤⑨⑩⑥ |⑨⑩⑪⑫|
⑦⑪⑫⑧ |⑬-⑭-|
56
①口口① |①-②-|
②口口② |③-④-|
③口口③ |⑤---|
④⑤⑤④ |----|
57
口口口口 |①---|
①口口① |----|
口①①口 |----|
口口口口 |----|
58
口③②① |----|
口③②① |①---|
①②③口 |②---|
①②③口 |③---|
59
①口口口 |①---|
①口口口 |----|
口口口① |----|
口口口① |----|
60
①③②口 |----|
③①口② |①---|
②口①③ |②---|
口②③① |③---|
61
口口口① |①---|
口口①口 |----|
口①口口 |----|
①口口口 |----|
62
①口口① |----|
口②②口 |①---|
口口口口 |②---|
③口口③ |③---|
63
口口口口 |①---|
口口③③ |--②-|
②口口① |----|
口②①口 |③---|
64
①②⑨⑩ |①②③④|
③④⑪⑫ |⑤⑥⑦⑧|
⑤⑥⑬⑭ |⑨⑩⑪⑫|
⑦⑧⑮⑯ |⑬⑭⑮⑯|
65
口口口口 |①---|
①①口口 |----|
口口口口 |----|
口②口③ |②-③-|
66
口口②口 |①---|
口口口② |----|
②口口口 |----|
口②①口 |②---|
67
口①口口 |①---|
①口口口 |----|
口口口① |----|
口口①口 |----|
68
口口口口 |①---|
①④④① |②-③-|
②口口③ |----|
①口口① |④---|
69
②①②① |①---|
②③③① |--②-|
口①②口 |----|
口口口口 |③---|
70
③③④④ |①---|
口口口口 |②---|
口口口口 |③---|
②②①① |④---|
71
口口口口 |①---|
①口口① |----|
①口口① |----|
口口口口 |----|
72
①②②① |----|
口③③口 |----|
口口口口 |--①-|
口口口口 |②-③-|
73
口口口口 |--①②|
④口口口 |③-④-|
口①③②
口口口口
74
口④口口 |①---|
⑤②⑥口 |②-③-|
口口口口 |④---|
口①①③ |⑤-⑥-|
75
口口③口 |--①-|
口口口口 |②---|
②④⑤① |③---|
口口口口 |④-⑤-|
76
口②②口 |----|
口③④口 |①---|
①口口① |②---|
口口口口 |③-④-|
77
口口口口 |----|
①口口③ |①-②-|
③口②① |③---|
④②⑤口 |④-⑤-|
78
①口②③ |--①-|
④口口口 |②---|
口口口⑤ |③-④-|
口⑥⑥口 |⑤-⑥-|
79
口口口② |----|
③口口口 |①---|
口①①④ |②-③-|
口⑤⑤口 |④-⑤-|
80
④③①⑤ |--①-|
口②口口 |②---|
口口口口 |③-④-|
口⑥⑥口 |⑤-⑥-|
81
⑧口口⑨ |①②③④|
①⑪⑪② |⑤⑥⑦-|
③⑦⑦④ |⑧⑨--|
⑤⑩⑩⑥ |⑩-⑪-|
82
口③口口 |----|
①口⑤口 |①-②-|
口口口② |③---|
口④口口 |④-⑤-|
83
口口②口 |----|
口口口口 |①---|
①③④口 |②---|
口口口口 |③-④-|
84
口②②口 |----|
口③④口 |①---|
①口口① |②---|
口口口口 |③-④-|
85
口口口口 |----|
①口口③ |①---|
②口口① |②-③-|
④口⑤口 |④-⑤-|
86
①口②③ |--①-|
④口口口 |②---|
口口口⑤ |③-④-|
口⑥⑥口 |⑤-⑥-|
87
口②③口 |----|
口④口口 |①---|
⑤⑤⑤⑤ |②-③-|
①口口① |④-⑤-|
88
口③④口 |--①-|
②口⑤② |②---|
口口口口 |③-④-|
①⑥⑥① |⑤-⑥-|
89
⑥口口② |--①-|
①口口⑤ |②-③-|
④③③口 |--④-|
口口口口 |⑤-⑥-|
90
⑤②⑥③ |①---|
口①①口 |②-③-|
④口口口 |④---|
口口口口 |⑤-⑥-|
91
口口口口 |----|
口①④口 |①-②-|
口③②口 |----|
口口口口 |③-④-|
92
①②⑤口 |①---|
②③④⑤ |②---|
⑤④③② |③---|
口⑤②① |④-⑤-|


不確定度: 0

最終更新:2013年03月29日 20:35