Queen's Paradise
Nanako

BASIC

Level: 4
BPM: 157
Notes: 317

1
口口口口 |----|
口口口口 |----|
口口口口 |----|
口口口口 |----|
2
口口口④ |①---|
口口③口 |--②-|
口口口② |③---|
口口①口 |--④-|
3
口口①口 |①---|
③口口② |----|
口口口口 |②---|
口口口口 |③---|
4
口①口口 |①---|
口口②口 |--②-|
口③口口 |③---|
④口口口 |--④-|
5
口口口口 |①---|
口口口口 |----|
口口口口 |----|
口①口口 |----|
6
口口口④ |①---|
口口③口 |--②-|
口口口② |③---|
口口①口 |--④-|
7
口口①口 |①---|
③口口② |----|
口口口口 |②---|
口口口口 |③---|
8
口①口口 |①---|
口口②口 |--②-|
口③口口 |③---|
口口口口 |----|
9
口口口口 |①--②|
口③③口 |--③-|
口②②口 |----|
口①①口 |----|
10
④口口④ |①---|
②③③② |--②-|
口口口口 |③---|
口①①口 |--④-|
11
口①①口 |①---|
③口口③ |----|
②口口② |②---|
口口口口 |③---|
12
②③③② |①---|
④口口④ |--②-|
口①①口 |③---|
口口口口 |--④-|
13
口口口口 |①---|
口①①口 |----|
口口口口 |----|
口口口口 |----|
14
口①①口 |①---|
口口口口 |--②-|
②③③② |③---|
④口口④ |--④-|
15
口口口口 |①---|
③口口③ |----|
②口口② |②---|
口①①口 |③---|
16
口③③口 |①---|
口①①口 |--②-|
口②②口 |③---|
口口口口 |----|
17
口口口口 |----|
口口口口 |----|
口口口口 |----|
口口口口 |----|
18
②口口① |--①-|
口④④口 |②---|
口③③口 |③---|
口口口口 |④---|
19
①口口② |--①-|
口④④口 |②---|
口③③口 |③---|
口口口口 |④---|
20
口口②口 |①---|
口③口① |②---|
④口口口 |③---|
口口口口 |--④-|
21
口口口口 |①---|
口口口口 |②-③-|
口口②口 |----|
口①口③ |----|
22
口口口口 |--①-|
口③③口 |②---|
口④④口 |③---|
①口口② |④---|
23
口口口口 |--①-|
口③③口 |②---|
口④④口 |③---|
②口口① |④---|
24
口口口口 |①---|
口口口口 |②---|
①口③口 |③---|
口②口④ |④---|
25
④口②口 |①---|
口③口① |②---|
口口口口 |③---|
口口口口 |④---|
26
口口口口 |①---|
口口口口 |----|
口口②② |②---|
口口①① |----|
27
口②口口 |①---|
口口①① |----|
口口口口 |----|
口口口口 |②---|
28
口口口口 |①---|
口①口口 |--②-|
口②③口 |③---|
口⑤④口 |④-⑤-|
29
口口口口 |----|
口口口口 |----|
口口口口 |----|
口口口① |①---|
30
口口口口 |①---|
口口口口 |----|
②②口口 |②---|
①①口口 |----|
31
口口口② |①---|
①①口口 |----|
口口口口 |----|
口口口口 |--②-|
32
口口①口 |①---|
口口②口 |--②-|
口④口③ |③---|
口口口口 |--④-|
33
口口口口 |①---|
口口口口 |----|
①口口口 |----|
口口口口 |----|
34
②口口① |--①-|
口④④口 |②---|
口③③口 |③---|
口口口口 |④---|
35
①口口② |--①-|
口④④口 |②---|
口③③口 |③---|
口口口口 |④---|
36
口口②口 |①---|
口③口① |②---|
④口口口 |③---|
口口口口 |--④-|
37
口口口口 |①---|
口口口口 |②-③-|
口口②口 |----|
口①口③ |----|
38
口口口口 |--①-|
口③③口 |②---|
口④④口 |③---|
①口口② |④---|
39
口口口口 |--①-|
口③③口 |②---|
口④④口 |③---|
②口口① |④---|
40
口口口口 |①---|
口口口口 |②---|
①口③口 |③---|
口②口④ |④---|
41
④口②口 |①---|
口③口① |②---|
口口口口 |③---|
口口口口 |④---|
42
口口口口 |①---|
口口口口 |----|
口口②② |②---|
口口①① |----|
43
口②口口 |①---|
口口①① |----|
口口口口 |----|
口口口口 |②---|
44
口口口口 |①---|
口①口口 |--②-|
口②③口 |③---|
口⑤④口 |④-⑤-|
45
口口口口 |----|
口口口口 |----|
口口口口 |----|
口口口口 |----|
46
口口口口 |①---|
口口口口 |----|
②②口口 |②---|
①①口口 |----|
47
口口口② |①---|
①①口口 |----|
口口口口 |----|
口口口口 |--②-|
48
口口①口 |①---|
⑤⑤②口 |--②-|
④④口③ |③---|
口口口口 |④-⑤-|
49
口口①口 |----|
口口②口 |①---|
口口③口 |②---|
口口口口 |③---|
50
口口口口 |①---|
口口口② |----|
口口口口 |②---|
口口口① |----|
51
口口口口 |①---|
口口口口 |②---|
④③②① |③---|
口口口口 |④---|
52
口口口口 |①---|
口①口口 |----|
口口④口 |②---|
口②③口 |③-④-|
53
口口口口 |----|
口③口口 |①---|
口②口口 |②---|
口①口口 |③---|
54
②①②口 |①---|
口口口口 |----|
口口口口 |②---|
口口口口 |----|
55
口口口口 |①---|
①②③④ |②---|
口口口口 |③---|
口口口口 |④---|
56
口口口口 |①---|
口②②口 |----|
口口口口 |②---|
口①①口 |----|
57
①①①① |①---|
口口口口 |----|
口口口口 |----|
口口口口 |----|
58
口口口口 |----|
口口口口 |----|
口口口口 |----|
口口口口 |----|
59
④口口④ |①---|
②③③② |--②-|
口口口口 |③---|
口①①口 |--④-|
60
口①①口 |①---|
③口口③ |----|
②口口② |②---|
口口口口 |③---|
61
②③③② |①---|
④口口④ |--②-|
口①①口 |③---|
口口口口 |--④-|
62
口口口口 |①---|
口①①口 |----|
口口口口 |----|
口口口口 |----|
63
口①①口 |①---|
口口口口 |--②-|
②③③② |③---|
④口口④ |--④-|
64
口口口口 |①---|
③口口③ |----|
②口口② |②---|
口①①口 |③---|
65
口③③口 |①---|
口①①口 |--②-|
口②②口 |③---|
口口口口 |----|
66
口口口口 |----|
口口口口 |----|
口口口口 |----|
口口口口 |----|
67
①①口口 |①---|
口口②② |----|
口口口口 |②---|
口口口口 |----|
68
口口口口 |①---|
口口口口 |②---|
口③②① |③---|
口口口口 |----|
69
口口①① |①---|
②②口口 |----|
口口口口 |②---|
口口口口 |----|
70
口口口口 |①---|
口口口口 |②---|
①②③口 |③---|
口口口口 |----|
71
口口①口 |①---|
口口口口 |----|
口口②口 |②---|
口口口口 |----|
72
口口口口 |①---|
①②③口 |②---|
口口口口 |③---|
口口口口 |----|
73
④口口④ |①---|
②③③② |--②-|
口口口口 |③---|
口①①口 |--④-|
74
口①①口 |①---|
③口口③ |----|
②口口② |②---|
口口口口 |③---|
75
③③③③ |①---|
口②②口 |--②-|
口①①口 |③---|
口口口口 |----|


不确定度: 0

最終更新:2012年11月11日 16:41