虹の先に何があるか
あさき
BASIC
Level: 4
BPM: 216
Notes: 283
1
口口口口 |----|
口①①口 |----|
口口口口 |----|
口口口口 |--①-|
2
口口口① |----|
口口口口 |----|
口口口口 |①---|
口口口口 |----|
3
口口口口 |①---|
口口口① |----|
口口口② |②---|
口口口口 |----|
4
口口口口 |①---|
口口口口 |----|
口口口口 |②---|
口口②① |----|
5
口口口口 |①---|
口③③口 |----|
口口口口 |②---|
②①口口 |--③-|
6
①口口口 |----|
口口口口 |----|
口口口口 |①---|
口口口口 |----|
7
口口口口 |①---|
①口口口 |----|
②口口口 |②---|
口口口口 |----|
8
口口口口 |①---|
口口口口 |----|
口口口口 |②---|
①②口口 |----|
9
口∨∨口 |①---|
口③③口 |----|
口口口口 |②---|
口口①② |--③-|
10
口口口口 |----|
口口口口 |----|
口口口口 |----|
口口口口 |----|
11
口口>② |①---|
口①①口 |----|
口口口口 |----|
口口口口 |②---|
12
口口口① |----|
①<口口 |----|
口口口口 |①---|
口口口口 |----|
13
口口口口 |①---|
①口口口 |----|
口口>①
口口口口
③<>③
口口口口
②口口② |②---|
口口口口 |--③-|
14
口口口口 |----|
口口口口 |----|
口口口口 |----|
口口口口 |----|
15
口口口口 |----|
口口口口 |----|
口口口口 |----|
口口口口 |----|
16
①口口① |①---|
口口∨口 |----|
口口②口 |----|
口口口口 |--②-|
17
口口口口 |----|
口口口口 |----|
口①①口 |----|
口口口口 |--①-|
18
口口口口 |----|
口口口口 |----|
口口口口 |----|
口口口口 |----|
19
口口口口 |①---|
口口口口 |②---|
口口口④ |③---|
口①②③ |④---|
20
口口口口 |①---|
口口口① |----|
口口口口 |----|
口口口口 |----|
21
口口口口 |①---|
口口口口 |②---|
④口口口 |③---|
③②①口 |④---|
22
口口口口 |①---|
①<口口 |----|
口口口口 |----|
口口口口 |----|
23
口口口口 |①---|
①口口① |----|
口口②口 |②---|
口口口口 |----|
24
口口口口 |①---|
口口②口 |----|
口①口口 |②---|
口口口口 |----|
25
口口②口 |①---|
口①口口 |----|
口口口口 |②---|
口口口口 |----|
26
口①口口 |①---|
口口口口 |----|
口②②口 |②---|
口口口口 |----|
27
口口口口 |①---|
口口口口 |②---|
口口口④ |③---|
口①②③ |④---|
28
口口口口 |①---|
口口口① |----|
口口口口 |----|
口口口口 |----|
29
口口口口 |①---|
口口口口 |②---|
④口口口 |③---|
③②①口 |④---|
30
口口口口 |①---|
①<口口 |----|
口口口口 |----|
口口口口 |----|
31
口口口口 |①---|
①口口① |----|
口口②口 |②---|
口口口口 |----|
32
口口口口 |①---|
口口②口 |----|
口①口口 |②---|
口口口口 |----|
33
口口②口 |①---|
口①口口 |----|
口口口口 |②---|
口口口口 |----|
34
口①口口 |①---|
口口口口 |----|
口②②口 |②---|
口口口口 |----|
35
口口口口 |①---|
口口口口 |②---|
④口口口 |③---|
③②①口 |④---|
36
口口口口 |①---|
①口口口 |----|
口口口口 |----|
口口口口 |----|
37
口口口口 |①---|
口口口口 |②---|
口口口④ |③---|
口①②③ |④---|
38
口口口口 |①---|
口口>① |----|
口口口口 |----|
口口口口 |----|
39
口②②口 |①---|
①口口① |----|
口口口口 |②---|
口口口口 |----|
40
③口口③ |①---|
口①①口 |----|
口②②口 |②---|
口口口口 |--③-|
41
②口口② |----|
口口口口 |----|
口①①口 |①---|
口口口口 |--②-|
42
口口口口 |----|
口口口口 |----|
口①①口 |①---|
口口口口 |----|
43
口口口口 |①---|
口口口口 |②---|
④口口口 |③---|
③②①口 |④---|
44
口口口口 |①---|
①口口口 |----|
口口口口 |----|
口口口口 |----|
45
口口口口 |①---|
口口口口 |②---|
口口口④ |③---|
口①②③ |④---|
46
口口口口 |①---|
口口>① |----|
口口口口 |----|
口口口口 |----|
47
口②②口 |①---|
①口口① |----|
口口口口 |②---|
口口口口 |----|
48
口口口口 |①---|
口①①口 |----|
口②②口 |②---|
口口口口 |----|
49
口口>① |①---|
口口口口 |----|
口口口口
口口口口
口口口②
②<口口
口口口口 |②---|
口口口口 |----|
50
口口口口 |①---|
①口口口 |----|
口口>① |----|
口口口口 |----|
51
口口口口 |①---|
口口口口 |----|
①②口① |②---|
口口口口 |----|
52
>②口口 |①---|
口①口口 |----|
口口口口 |②---|
口口口口 |----|
53
口①>③ |①---|
口口口口 |----|
口②②口 |②---|
口口口口 |--③-|
54
口口口口 |----|
口口口口 |----|
口口口口 |----|
口口口口 |----|
55
①②②① |①---|
口口口口 |----|
口口口口 |②---|
口口口口 |----|
56
口口口口 |①---|
口①①口 |----|
口②②口 |②---|
口口口口 |----|
57
②∨口② |①---|
口③口口 |----|
口口口口 |②---|
口①①口 |--③-|
58
口口∨口 |----|
口①①口 |----|
口口口口 |①---|
口口口口 |----|
59
口口口口 |①---|
口口①口 |----|
>①口口
口口口口
③<>③
口口口口
口②②口 |②---|
口口口口 |--③-|
60
口口口口 |----|
口口口口 |----|
口口口口 |----|
口口口口 |----|
61
①①①① |①---|
③口口③ |----|
②口口② |②---|
口口口口 |③---|
62
口口口口 |----|
口①①口 |----|
口②②口 |①---|
口口口口 |②---|
63
口口口口 |①---|
④口口④ |②---|
③口口③ |③---|
②①①② |④---|
64
①<>① |①---|
口口口口 |----|
口口口口 |----|
口口口口 |----|
65
①①①① |①---|
口口口口 |----|
口②②口 |②---|
口口口口 |----|
66
口口口口 |①---|
④③②① |②---|
口口口口 |③---|
口口口口 |④---|
67
口口口口 |----|
③口口③ |①---|
②口口② |②---|
①口口① |③---|
68
①<>① |①---|
口口口口 |----|
口口口口 |----|
口口口口 |----|
69
①①①① |①---|
口③③口 |----|
口②②口 |②---|
口口口口 |③---|
70
口口口口 |----|
口口口口 |①---|
口③②① |②---|
口口口口 |③---|
71
口口口口 |①---|
②③④口 |②---|
①口口口 |③---|
口口口口 |④---|
72
口口口口 |①---|
口口口① |②---|
口④③② |③---|
口口口口 |④---|
73
口②②口 |①---|
口口口口 |----|
①口口口 |②---|
口口口口 |----|
74
口口口口 |----|
①><① |----|
①><① |①---|
口口口口 |----|
75
口口口口 |----|
口口口口 |----|
口口口口 |----|
口口口口 |----|
76
口口口口 |----|
①口口① |----|
①口口① |----|
口口口口 |①---|
77
口①口口 |----|
口②口口 |①---|
口③口口 |②---|
口口口口 |③---|
78
口口口口 |①---|
口口④口 |②---|
口口③口 |③---|
口①②口 |④---|
79
口口①口 |①---|
口口口口 |----|
口口口口
口口口口
③<>③
口口口口
口②②口 |②---|
口口口口 |--③-|
80
口口口口 |----|
口口口口 |----|
口口口口 |----|
口口口口 |----|
81
①①①① |①---|
口口口口 |----|
口②②口 |②---|
口口口口 |----|
82
口口口口 |①---|
①②③④ |②---|
口口口口 |③---|
口口口口 |④---|
83
口口口口 |----|
③口口③ |①---|
②口口② |②---|
①口口① |③---|
84
①<>① |①---|
口口口口 |----|
口口口口 |----|
口口口口 |----|
85
①①①① |①---|
口③③口 |----|
口②②口 |②---|
口口口口 |③---|
86
口口口口 |----|
口口口口 |①---|
①②③口 |②---|
口口口口 |③---|
87
口口口口 |①---|
口④③② |②---|
口口口① |③---|
口口口口 |④---|
88
③口口③ |①---|
①口口口 |----|
口②②口 |②---|
口口口口 |--③-|
89
口口口口 |----|
①②③口 |①---|
口口口口 |②---|
口口口口 |③---|
90
口口口∨ |①---|
口口口① |----|
口口口口
口口口口
口口口口
②口口②
口口口口 |----|
口口口口 |②---|
91
口口口口 |①---|
口口口口 |----|
①<口口
口口口口
口口口口
口口口口
②口口口 |----|
口口口口 |--②-|
不確定度: 0